Паника в деревне / Panique au village (2009) BDRemux 1080p | субтитры

 
Автор Сообщение

sergej644 ®

Пол:

Стаж: 4 года 11 месяцев

Сообщений: 6045

Откуда: Soviet Union



Награды: Нет

Торрент-статистика

Создавать темы 22-Окт-2014 11:33

[Цитировать]

--Паника в деревне / Panique au village«They came... They saw... They panicked...»-Страна: Бельгия, Люксембург, Франция / Beast Production, Beast Productions, Canal+ Horizons, Canal+ [fr], Centre National du Cinéma et de l'Audiovisuel de la Communauté française de Belgique, Fonds National de Soutien à la Production Audiovisuelle du Luxembourg, Gébéka Films, La Parti Productions, Le Tax Shelter du Gouvernement Fédéral de Belgique, Les Films du Grognon, Mélusine, Mélusine Productions, Made in PM, Made in Productions, Région Wallone, Radio Télévision Belge Francofone (RTBF), Vlaams Audiovisueel Fonds, Wallimage
Жанр: мультфильм, фэнтези, комедия, приключения, семейный
Год выпуска: 2009
Продолжительность: 01:16:52
Перевод: Субтитры
Cубтитры: русские, английские
Оригинальная аудиодорожка: английский
Режиссер: Стефани Обье / Stéphane Aubier, Венсан Патар / Vincent Patar
В ролях: Стефани Обье, Жанна Балибар, Николя Бюиссе, Вероника Дюмон, Брюс Эллисон, Кристина Грюлуа, Фридерик Жаннен, Були Ланнерс, Брайан Лукке,
Кристель Маи...
Описание: Приключения героев начинаются с благой идеи. Ковбой и Индеец решили подарить Лошади «вещь», сделанную своими руками. Идея оказалась не самой лучшей: нежданный подарок разрушил дом Лошади.

Качество: BDRemux 1080p / HDCLUB
Формат: BDAV
Видео: 1920x1080 at 23.976 fps, MPEG-4 AVC, ~11214 kbps avg
Аудио: English: 48 kHz/16-bit, Dolby TrueHD 5.1, ~1509.00 kbps avg
Дополнительно: Фильм разбит на главы, как на оригинальном Blu-ray диске.
Раздача от:

MediaInfo

Общее
Идентификатор : 1 (0x1)
Полное имя : PANIQUE_AU_VILLAGE_2011_REMUX_HDCLUBBDMVSTREAM0000.m2ts
Формат : BDAV
Формат/Информация : Blu-ray Video
Размер файла : 8,09 Гбайт
Продолжительность : 1 ч. 16 м.
Режим общего битрейта : Переменный
Общий поток : 15,1 Мбит/сек
Максимальный общий битрейт : 35,5 Мбит/сек
Видео
Идентификатор : 4113 (0x1011)
Идентификатор меню : 1 (0x1)
Формат : AVC
Формат/Информация : Advanced Video Codec
Профиль формата : High@L4.1
Параметр CABAC формата : Да
Параметр ReFrames формата : 4 кадра
Параметр GOP формата : M=3, N=24
Идентификатор кодека : 27
Продолжительность : 1 ч. 16 м.
Вид битрейта : Переменный
Битрейт : 13,8 Мбит/сек
Максимальный битрейт : 30,0 Мбит/сек
Ширина : 1920 пикселей
Высота : 1080 пикселей
Соотношение сторон : 16:9
Частота кадров : 23,976 кадра/сек
Стандарт вещания : NTSC
Цветовое пространство : YUV
Субдискретизация насыщенности : 4:2:0
Битовая глубина : 8 бит
Тип развёртки : Прогрессивная
Бит/(Пиксели*Кадры) : 0.278
Размер потока : 7,42 Гбайт (92%)
Аудио
Идентификатор : 4352 (0x1100)
Идентификатор меню : 1 (0x1)
Формат : TrueHD / AC-3
Расширение режима : CM (complete main)
Параметр Endianness формата : Big
Режим смешивания : Stream extension
Идентификатор кодека : 131
Продолжительность : 1 ч. 16 м.
Вид битрейта : Переменный / Постоянный
Битрейт : 640 Кбит/сек
Максимальный битрейт : 2871 Кбит/сек
Каналы : 6 каналов
Расположение каналов : Front: L C R, Side: L R, LFE
Частота : 48,0 КГц
Битовая глубина : 16 бит
Размер потока : 352 Мбайт (4%)
Текст #1
Идентификатор : 4608 (0x1200)
Идентификатор меню : 1 (0x1)
Формат : PGS
Идентификатор кодека : 144
Текст #2
Идентификатор : 4609 (0x1201)
Идентификатор меню : 1 (0x1)
Формат : PGS
Идентификатор кодека : 144

Скриншоты:

[Профиль] [ЛС]
Кто просматривает тему:

Показать сообщения:    

Текущее время: Сегодня 22:23

Часовой пояс: GMT



Вы не можете начинать темы
Вы не можете отвечать на сообщения
Вы не можете редактировать свои сообщения
Вы не можете удалять свои сообщения
Вы не можете голосовать в опросах
Вы не можете прикреплять файлы к сообщениям
Вы не можете скачивать файлы