Пало-Альто / Palo Alto (2013) BDRip 720p от CINEMANIA | L1

 
Автор Сообщение

sergej644 ®

Пол:

Стаж: 4 года 11 месяцев

Сообщений: 6045

Откуда: Soviet Union



Награды: Нет

Торрент-статистика

Создавать темы 09-Ноя-2014 23:47

[Цитировать]

Информация о фильме
Название: Пало-Альто
Оригинальное название: Palo Alto
Год выхода: 2013
Жанр: драма
Режиссер: Джиа Коппола
В ролях: Эмма Робертс, Джеймс Франко, Джек Килмер, Вэл Килмер, Нат Вулф, Оливия Крокикчия, Клаудия Леви
О фильме
Основанный ни личных воспоминаниях Джеймса Франко, этот фильм расскажет о жизни студентов одной из старших школ Пало-Альто – маленького городка в предместьях Сан-Франциско. Старшеклассница Эйприл, капитан женской футбольной команды, влюбляется в своего молодого и симпатичного тренера, а потому не замечает, с какой любовью смотрит на неё один из одноклассников. Вместе с друзьями Эйприл делает всё, чтобы сделать свою юность яркой и запоминающейся...

Выпущено: США
Продолжительность: 01:39:57
Озвучивание: Любительское (одноголосое) [Антон Агапов aka datynet]
Файл
Формат: MKV
Качество: BDRip 720p [VietHD]
Видео: 6229 kb/s, 1280х690
Аудио: Russian: AC3, 256 kb/s (2 ch) / English: AC3, 640 kb/s (6 ch)
Субтитры: Russian [Dr.pro], English
Дополнительно: Сохранены оригинальные чаптеры как на Blu-Ray
Размер: 5.08 GB
------------
Скачать: Сэмпл
------------

Инфо-Файл

General
    Palo.Alto.2013.Blu.Ray.720p.CINEMANIA.mkv
    Format : Matroska
    Format version : Version 4 / Version 2
    File size : 5.08 GiB
    Duration : 1h 39mn
    Overall bit rate : 7 270 Kbps
    Movie name : Release Group CINEMANIA
    Encoded date : UTC 2014-11-06 15:35:52
    Writing application : mkvmerge v7.3.0 ('Nouages') 64bit built on Oct 22 2014 18:53:34
    Writing library : libebml v1.3.0 + libmatroska v1.4.1
    Video
    ID : 1
    Format : AVC
    Format/Info : Advanced Video Codec
    Format profile : High@L4.1
    Format settings, CABAC : Yes
    Format settings, ReFrames : 9 frames
    Codec ID : V_MPEG4/ISO/AVC
    Duration : 1h 39mn
    Bit rate : 6 229 Kbps
    Width : 1 280 pixels
    Height : 690 pixels
    Display aspect ratio : 1.85:1
    Original display aspect ratio : 1.85:1
    Frame rate mode : Constant
    Frame rate : 23.976 fps
    Color space : YUV
    Chroma subsampling : 4:2:0
    Bit depth : 8 bits
    Scan type : Progressive
    Bits/(Pixel*Frame) : 0.294
    Stream size : 4.35 GiB (86%)
    Title : Release Group CINEMANIA
    Writing library : x264 core 142 r2431+42 c69a006 tMod [8-bit@4:2:0 X86_64]
    Encoding settings : cabac=1 / ref=9 / deblock=1:-3:-3 / analyse=0x3:0x133 / me=umh / subme=10 / psy=1 / fade_compensate=0.00 / psy_rd=1.00:0.00 / mixed_ref=1 / me_range=24 / chroma_me=1 / trellis=2 / 8x8dct=1 / cqm=0 / deadzone=21,11 / fast_pskip=1 / chroma_qp_offset=-2 / threads=12 / lookahead_threads=2 / sliced_threads=0 / nr=0 / decimate=1 / interlaced=0 / bluray_compat=0 / constrained_intra=0 / fgo=0 / bframes=9 / b_pyramid=2 / b_adapt=2 / b_bias=0 / direct=3 / weightb=1 / open_gop=0 / weightp=2 / keyint=250 / keyint_min=23 / scenecut=40 / intra_refresh=0 / rc=crf / mbtree=0 / crf=16.4000 / qcomp=0.65 / qpmin=0:0:0 / qpmax=69:69:69 / qpstep=4 / ip_ratio=1.30 / pb_ratio=1.20 / aq=4:0.85 / aq-sensitivity=10.00 / aq-factor=1.00:1.00:1.00 / aq2=0 / aq3=0
    Language : English
    Default : Yes
    Forced : No
    Matrix coefficients : BT.709
    Audio #1
    ID : 2
    Format : AC-3
    Format/Info : Audio Coding 3
    Mode extension : CM (complete main)
    Format settings, Endianness : Big
    Codec ID : A_AC3
    Duration : 1h 39mn
    Bit rate mode : Constant
    Bit rate : 256 Kbps
    Channel(s) : 2 channels
    Channel positions : Front: L R
    Sampling rate : 48.0 KHz
    Bit depth : 16 bits
    Compression mode : Lossy
    Stream size : 183 MiB (4%)
    Title : Антошка Агапов
    Language : Russian
    Default : Yes
    Forced : Yes
    Audio #2
    ID : 3
    Format : AC-3
    Format/Info : Audio Coding 3
    Mode extension : CM (complete main)
    Format settings, Endianness : Big
    Codec ID : A_AC3
    Duration : 1h 39mn
    Bit rate mode : Constant
    Bit rate : 640 Kbps
    Channel(s) : 6 channels
    Channel positions : Front: L C R, Side: L R, LFE
    Sampling rate : 48.0 KHz
    Bit depth : 16 bits
    Compression mode : Lossy
    Stream size : 458 MiB (9%)
    Language : English
    Default : No
    Forced : No
    Text #2
    ID : 5
    Format : UTF-8
    Codec ID : S_TEXT/UTF8
    Codec ID/Info : UTF-8 Plain Text
    Title : Dr.pro
    Language : Russian
    Default : No
    Forced : No
    Text #3
    ID : 6
    Format : UTF-8
    Codec ID : S_TEXT/UTF8
    Codec ID/Info : UTF-8 Plain Text
    Language : English
    Default : No
    Forced : No
    Text #4
    ID : 7
    Format : UTF-8
    Codec ID : S_TEXT/UTF8
    Codec ID/Info : UTF-8 Plain Text
    Language : English
    Default : No
    Forced : No
    Menu
    00:00:00.000 : en:00:00:00.000
    00:05:47.305 : en:00:05:47.305
    00:08:25.130 : en:00:08:25.130
    00:19:04.477 : en:00:19:04.477
    00:22:10.454 : en:00:22:10.454
    00:27:39.491 : en:00:27:39.491
    00:30:11.727 : en:00:30:11.727
    00:35:39.054 : en:00:35:39.054
    00:43:53.548 : en:00:43:53.548
    00:54:12.916 : en:00:54:12.916
    01:04:04.674 : en:01:04:04.674
    01:11:45.218 : en:01:11:45.218
    01:15:53.090 : en:01:15:53.090
    01:21:45.692 : en:01:21:45.692
    01:29:50.552 : en:01:29:50.552
    01:33:57.757 : en:01:33:57.757
------------
Релиз группы:

Скриншоты

--
[Профиль] [ЛС]
Кто просматривает тему:

Показать сообщения:    

Текущее время: Сегодня 20:24

Часовой пояс: GMT



Вы не можете начинать темы
Вы не можете отвечать на сообщения
Вы не можете редактировать свои сообщения
Вы не можете удалять свои сообщения
Вы не можете голосовать в опросах
Вы не можете прикреплять файлы к сообщениям
Вы не можете скачивать файлы