Пало-Альто / Palo Alto (Джиа Коппола / Gia Coppola) [2013, США, драма, WEB-DL 720p] Sub Rus, Eng + Original Eng

 
Автор Сообщение

reversefile ®

Пол:

Стаж: 4 года 5 месяцев

Сообщений: 842

Откуда: ReverseFile.org



Награды: Нет

Торрент-статистика

Создавать темы 13-Авг-2014 18:26

[Цитировать]

Пало-Альто / Palo Alto
Страна: США
Жанр: драма
Год выпуска: 2013
Продолжительность: 01:39:44
Перевод: Субтитры Перевод: Dr.pro и группа Chillerama
Cубтитры: русские, английские
Оригинальная аудиодорожка: английский
Режиссер: Джиа Коппола / Gia Coppola
В ролях: Джек Килмер, Нат Вулф, Эмма Робертс, Оливия Крокикчия, Клаудия Леви, Джеймс Франко, Вэл Килмер
Описание: История о группе подростков, которые постоянно находят себе неприятности

Сэмпл: http://sendfile.su/1010839
Качество видео: WEB-DL 720p
Формат видео: MKV
Видео: H264, 1280x688, 23.976 fps, 3 952 Kbps
Аудио: Dolby AC3, 48000Hz, 6ch, 384kbps

MediaInfo

General
Unique ID : 225721639456128319694053838675524992513 (0xA9D0680D44F1E25284EF0DD32C503E01)
Complete name : E:\Раздачи\Palo Alto (2013) - 720p\Palo Alto (2013).mkv
Format : Matroska
Format version : Version 4 / Version 2
File size : 3.08 GiB
Duration : 1h 39mn
Overall bit rate : 4 424 Kbps
Encoded date : UTC 2014-08-09 08:49:33
Writing application : mkvmerge v7.1.0 ('Good Love') 64bit built on Jul 27 2014 13:06:55
Writing library : libebml v1.3.0 + libmatroska v1.4.1
_STATISTICS_WRITING_APP : mkvmerge v7.1.0 ('Good Love') 64bit built on Jul 27 2014 13:06:55
_STATISTICS_WRITING_DATE_UTC : 2014-08-09 08:49:33
_STATISTICS_TAGS : BPS DURATION NUMBER_OF_FRAMES NUMBER_OF_BYTES
DURATION : 01:32:26.107000000
NUMBER_OF_FRAMES : 1454
NUMBER_OF_BYTES : 68135
Attachment : Yes
Video
ID : 1
Format : AVC
Format/Info : Advanced Video Codec
Format profile : High@L3.1
Format settings, CABAC : No
Format settings, ReFrames : 2 frames
Codec ID : V_MPEG4/ISO/AVC
Duration : 1h 39mn
Bit rate : 3 952 Kbps
Width : 1 280 pixels
Height : 688 pixels
Display aspect ratio : 1.85:1
Frame rate mode : Constant
Frame rate : 23.976 fps
Color space : YUV
Chroma subsampling : 4:2:0
Bit depth : 8 bits
Scan type : Progressive
Bits/(Pixel*Frame) : 0.187
Stream size : 2.75 GiB (89%)
Language : English
Default : Yes
Forced : No
Color primaries : BT.709
Transfer characteristics : BT.709
Matrix coefficients : BT.709
Audio
ID : 2
Format : AC-3
Format/Info : Audio Coding 3
Mode extension : CM (complete main)
Format settings, Endianness : Big
Codec ID : A_AC3
Duration : 1h 39mn
Bit rate mode : Constant
Bit rate : 384 Kbps
Channel(s) : 6 channels
Channel positions : Front: L C R, Side: L R, LFE
Sampling rate : 48.0 KHz
Bit depth : 16 bits
Compression mode : Lossy
Stream size : 274 MiB (9%)
Language : English
Default : Yes
Forced : No
Text #1
ID : 3
Format : UTF-8
Codec ID : S_TEXT/UTF8
Codec ID/Info : UTF-8 Plain Text
Language : Russian
Default : Yes
Forced : No
Text #2
ID : 4
Format : UTF-8
Codec ID : S_TEXT/UTF8
Codec ID/Info : UTF-8 Plain Text
Default : No
Forced : No
Menu
00:00:00.000 : en:Chapter 1
00:08:12.000 : en:Chapter 2
00:18:51.000 : en:Chapter 3
00:29:30.000 : en:Chapter 4
00:40:50.000 : en:Chapter 5
00:53:00.000 : en:Chapter 6
01:03:51.000 : en:Chapter 7
01:15:03.000 : en:Chapter 8
01:25:31.000 : en:Chapter 9
01:33:46.000 : en:Chapter 10

Фрагмент субтитров

1
00:00:41,574 --> 00:00:43,242
- Тедди?
- А?
2
00:00:43,244 --> 00:00:46,365
Представь, что ты оказался в прошлом. Что бы ты сделал тогда?
3
00:00:46,513 --> 00:00:48,380
В прошлом?
4
00:00:48,382 --> 00:00:51,702
Ну да, когда был Король Артур с рыцарями, лошадьми и прочим дерьмом.
5
00:00:52,552 --> 00:00:56,088
- Я бы был королем!
- Ты не смог бы стать королем, олень. Ни за что.
6
00:00:57,357 --> 00:00:59,324
Чувак, я тебе говорю, что если бы я оказался в прошлом, то определенно был бы, блядь, королем!
7
00:01:00,126 --> 00:01:01,527
Я бы был королем.
8
00:01:03,530 --> 00:01:05,798
И перетрахал бы всех девствениц
в своем королевстве.

Скриншоты

[Профиль] [ЛС]
Кто просматривает тему:

Показать сообщения:    

Текущее время: Сегодня 05:16

Часовой пояс: GMT



Вы не можете начинать темы
Вы не можете отвечать на сообщения
Вы не можете редактировать свои сообщения
Вы не можете удалять свои сообщения
Вы не можете голосовать в опросах
Вы не можете прикреплять файлы к сообщениям
Вы не можете скачивать файлы