Палач (Вячеслав Никифоров) (Серии 1-10 из 10 ) [2014 , Детектив, криминал, триллер , HDTVRip 1080p]

 
Автор Сообщение

Враг Нароода ®

Стаж: 1 год 8 месяцев

Сообщений: 112



Награды: 2 (Подробнее)

Mega Seeder 1 (Количество: 1) За внесенный вклад в развитие сайта (Количество: 1)
Торрент-статистика

Создавать темы 31-Окт-2015 15:26

[Цитировать]

--Палач Серии 1-10 из 10-- --Год выпуска: 2014
Выпущено: Россия , Красный квадрат, ООО "Студия Русский Проект" по заказу Первого канала
Жанр:Детектив, криминал, триллер
Продолжительность: 00:50:00
Серии: 1-10
Количество серий в сезоне: 10
Перевод :Не требуется
Субтитры: Нет-- --Режиссер: Вячеслав Никифоров --В ролях: Андрей Смоляков, Виктория Толстоганова, Юлия Пересильд, Марина Александрова, Алексей Бардуков, Юрий Тарасов, Владимир Юматов, Вадим Андреев, Даниэла Стоянович, Саша Дробитько, Виталий Кищенко, Мария Андреева, Людмила Полякова, Анатолий Журавлёв, Алёна Константинова, Вероника Лысакова, Филипп Гуревич, Василий Слюсаренко, Юрий Чурсин, Светлана Ходченкова, Денис Бургазлиев, Иван Волков, Луиза Мосендз, Анатолий Просалов, Василий Сахновский, Анвар Халилулаев, Вероника Вернадская, Алексей Дмитриев, Ёла Санько, Анатолий Калмыков, Юлия Куварзина, Станислав Беляев, Руслан Ягудин-- События разворачиваются на окраине Москвы в 1965 году. В центре — история разоблачения женщины-палача, которая во время войны по указке немцев расстреливала пленных, партизан, мирных жителей. Это фактически отдельная гражданская война изуверки со своим народом. В войну ей едва исполнилось 20 лет, а на ее счету было уже полторы тысячи убийств.
Своих жертв она расстреливала из пулемета, прячась за игрушечной маской зайчика. Потом выпивала бутылку самогона и затем появлялась уже на следующее утро без маски и жила обычной жизнью, такой же, как и все остальные… Поэтому после войны вычислить убийцу было очень непросто. Дело это поручили главному следователю. Его подозрения падают то на одну, то на другую женщину…...
-- --Качество :HDTVRip 1080p
Формат: MKV
Видео кодек: H264
Видео: 6650Кбит/сек,1920х1080(16.9),в 29.976кадр/сек,AVC(High@L4)(CABAC/2 Ref Frames)
Аудио Кодек:AC3
Аудио Russian Dolby Digital 5.1:AC3 , 384 Kbps, 48.0 KHz, 6 ch--

Доп. информация:

Звуковая дорожка сделана путем наложения чистого голоса озвучивателей на центральный канал оригинальной дорожки. Качество идентично звуковой дорожке.
--

MediaInfo СЕЗОНА

Общее
Уникальный идентификатор : 189249414397985865636233399374708002138 (0x8E601C85AC33B93894FF5C897C54CD5A)
Полное имя : D:\НАШЕ КИНО\П А Л А Ч\Palach_2014_E01_-_Е10_RUS[1Canal_Russia]_H264_DD5.1_N.B_HDTVRip_1080p\Palach_2014_E01_-_Е02_RUS[1Canal_Russia]_H264_DD5.1_N.B_HDTVRip_1080p.mkv
Формат : Matroska
Версия формата : Version 4 / Version 2
Размер файла : 5,12 Гбайт
Продолжительность : 1 ч. 42 м.
Режим общего битрейта : Переменный
Общий поток : 7177 Кбит/сек
Название фильма : Palach_2014_E01_-_Е02_RUS[1Canal_Russia]_H264_DD5.1_N.B_HDTVRip_1080p
Дата кодирования : UTC 2015-10-30 16:05:41
Программа кодирования : mkvmerge v8.5.1 ('Where you lead I will follow') 64bit
Библиотека кодирования : libebml v1.3.3 + libmatroska v1.4.4
DURATION : 01:42:13.490000000
NUMBER_OF_FRAMES : 191670
NUMBER_OF_BYTES : 294405120
_STATISTICS_WRITING_APP : mkvmerge v8.5.1 ('Where you lead I will follow') 64bit
_STATISTICS_WRITING_DATE_UTC : 2015-10-30 16:05:41
_STATISTICS_TAGS : BPS DURATION NUMBER_OF_FRAMES NUMBER_OF_BYTES
Видео
Идентификатор : 1
Формат : AVC
Формат/Информация : Advanced Video Codec
Профиль формата : High@L4
Параметр CABAC формата : Да
Параметр ReFrames формата : 2 кадра
Параметр GOP формата : M=2, N=15
Идентификатор кодека : V_MPEG4/ISO/AVC
Продолжительность : 1 ч. 42 м.
Вид битрейта : Переменный
Битрейт : 6650 Кбит/сек
Максимальный битрейт : 16,0 Мбит/сек
Ширина : 1920 пикселей
Высота : 1080 пикселей
Соотношение сторон : 16:9
Режим частоты кадров : Постоянный
Частота кадров : 29,970 кадров/сек
Цветовое пространство : YUV
Субдискретизация насыщенности : 4:2:0
Битовая глубина : 8 бит
Тип развёртки : Прогрессивная
Бит/(Пиксели*Кадры) : 0.107
Размер потока : 4,75 Гбайт (93%)
Язык : English
Default : Нет
Forced : Нет
Аудио
Идентификатор : 2
Формат : AC-3
Формат/Информация : Audio Coding 3
Расширение режима : CM (complete main)
Параметр Endianness формата : Big
Идентификатор кодека : A_AC3
Продолжительность : 1 ч. 42 м.
Вид битрейта : Постоянный
Битрейт : 384 Кбит/сек
Каналы : 6 каналов
Расположение каналов : Front: L C R, Side: L R, LFE
Частота : 48,0 КГц
Метод сжатия : С потерями
Размер потока : 281 Мбайт (5%)
Default : Нет
Forced : Нет
--

Скриншоты СЕЗОНА

-- -- -- --Релиз от: Nikolai.Baranov & PIRATIYA -- -- -- --
[Профиль] [ЛС]
Показать сообщения:    

Текущее время: Сегодня 18:22

Часовой пояс: GMT



Вы не можете начинать темы
Вы не можете отвечать на сообщения
Вы не можете редактировать свои сообщения
Вы не можете удалять свои сообщения
Вы не можете голосовать в опросах
Вы не можете прикреплять файлы к сообщениям
Вы не можете скачивать файлы