Палач [01-10 из 10] (2014) WEB-DLRip

 
Автор Сообщение

Russian Mafia ®

Пол:

Стаж: 1 год 8 месяцев

Сообщений: 4255



Награды: 10 (Подробнее)

Top Releaser 5 (Количество: 1) Mega Seeder 3 (Количество: 1) Mega Seeder 5 (Количество: 1)
Торрент-статистика

Создавать темы 27-Окт-2015 06:11

[Цитировать]

Информация о фильме
Название: Палач
Год выхода: 2014
Жанр: Драма, триллер
Режиссер: Вячеслав Никифоров
В ролях: Андрей Смоляков, Виктория Толстоганова, Юлия Пересильд, Марина Александрова, Алексей Бардуков, Юрий Тарасов, Владимир Юматов, Вадим Андреев, Даниэла Стоянович, Саша Дробитько, Виталий Кищенко, Мария Андреева, Людмила Полякова, Анатолий Журавлёв, Алёна Константинова, Вероника Лысакова, Филипп Гуревич, Василий Слюсаренко, Юрий Чурсин, Светлана Ходченкова, Денис Бургазлиев, Иван Волков, Луиза Мосендз, Анатолий Просалов, Василий Сахновский, Анвар Халилулаев, Вероника Вернадская, Алексей Дмитриев, Ёла Санько, Анатолий Калмыков, Юлия Куварзина, Станислав Беляев, Руслан Ягудин
О фильме:
События разворачиваются на окраине Москвы в 1965 году. В центре - история разоблачения женщины-палача, которая во время войны по указке немцев расстреливала пленных, партизан, мирных жителей. Это фактически отдельная гражданская война изуверки со своим народом. В войну ей едва исполнилось 20 лет, а на ее счету было уже полторы тысячи убийств. Своих жертв она расстреливала из пулемета, прячась за игрушечной маской зайчика. Потом выпивала бутылку самогона и затем появлялась уже на следующее утро без маски и жила обычной жизнью, такой же, как и все остальные...Поэтому после войны вычислить убийцу было очень непросто. Дело это поручили главному следователю. Его подозрения падают то на одну, то на другую женщину...

Страна: Россия
Студия: ООО "Студия Русский Проект"
Продолжительность: 10 х ~ 00:52:00
Язык: Русский
Файл
Кодек: XviD
Качество: WEB-DLRip
Видео: XviD, ~ 1060 Кбит/с, 688х384
Звук: MP3, 2 ch, 128 Кбит/с

МедиаИнфо

Общее
Полное имя : Palach.(10.serij.iz.10).2014.XviD.WEB-DLRip.by.GeneralFilm�1.seriya.avi
Формат : AVI
Формат/Информация : Audio Video Interleave
Размер файла : 448 Мбайт
Продолжительность : 51 м.
Общий поток : 1210 Кбит/сек
Программа кодирования : VirtualDubMod 1.5.10.3 | www.virtualdub-fr.org || (build 2550/release)
Библиотека кодирования : VirtualDubMod build 2550/release
Видео
Идентификатор : 0
Формат : MPEG-4 Visual
Профиль формата : Advanced Simple@L5
Параметр BVOP формата : 1
Параметр QPel формата : Нет
Параметр GMC формата : Без точки перехода
Параметр матрицы формата : Выборочная
Идентификатор кодека : XVID
Идентификатор кодека/Подсказка : XviD
Продолжительность : 51 м.
Битрейт : 1064 Кбит/сек
Ширина : 688 пикселей
Высота : 384 пикселя
Соотношение сторон : 16:9
Частота кадров : 50,000 кадров/сек
Цветовое пространство : YUV
Субдискретизация насыщенности : 4:2:0
Битовая глубина : 8 бит
Тип развёртки : Прогрессивная
Метод сжатия : С потерями
Бит/(Пиксели*Кадры) : 0.081
Размер потока : 394 Мбайт (88%)
Библиотека кодирования : XviD 73
Аудио
Идентификатор : 1
Формат : MPEG Audio
Версия формата : Version 1
Профиль формата : Layer 3
Идентификатор кодека : 55
Идентификатор кодека/Подсказка : MP3
Продолжительность : 51 м.
Вид битрейта : Постоянный
Битрейт : 128 Кбит/сек
Каналы : 2 канала
Частота : 48,0 КГц
Метод сжатия : С потерями
Размер потока : 47,4 Мбайт (11%)
Выравнивание : Соединение по промежуткам
Продолжительность промежутка : 24 мс. (1,20 видеокадр)
Время предзагрузки промежутка : 504 мс.
Библиотека кодирования : LAME3.99r
Настройки программы : -m s -V 4 -q 0 -lowpass 17 -b 128
[Профиль] [ЛС]
Показать сообщения:    

Текущее время: Сегодня 14:29

Часовой пояс: GMT



Вы не можете начинать темы
Вы не можете отвечать на сообщения
Вы не можете редактировать свои сообщения
Вы не можете удалять свои сообщения
Вы не можете голосовать в опросах
Вы не можете прикреплять файлы к сообщениям
Вы не можете скачивать файлы