Палач [01-10 из 10] (2014) HDTVRip

 
Автор Сообщение

BOSS ®

Пол:

Стаж: 2 года 1 месяц

Сообщений: 3713

Откуда: ODESSA



Награды: 20 (Подробнее)

За внесенный вклад в развитие сайта (Количество: 1) Top Keeper 1 (Количество: 1) Top Releaser 2 (Количество: 1)
Торрент-статистика

Создавать темы 15-Янв-2015 18:52

[Цитировать]

Оригинальное название: Палач
Год выпуска: 2014
Жанр: Триллер
Выпущено: Россия, ООО «Студия Русский проект»
Режиссер: Вячеслав Никифоров
В ролях: Андрей Смоляков, Марина Александрова, Алексей Бардуков, Юлия Пересильд, Виктория Толстоганова, Анатолий Журавлёв, Анатолий Калмыков, Анатолий Просалов, Руслан Ягудин, Юрий Чурсин, Светлана Ходченкова, Андреас Хельги Шмид, Маттиас В. Винтцер, Борис Полунин, Юрий Тарасов, Юлия Куварзина, Людмила Полякова, Вероника Лысакова, Денис Варенов, Елена Семёнова-Хмурова, Вероника Вернадская, Станислав Беляев, Алёна Константинова, Анатолий Кузнецов, Иван Волков, Анвар Халилулаев, Денис Курочка, Ася Дубровская, Анастасия Шалонько, Луиза Мосендз, Ольга Гагарина, Игорь Филиппов, Денис Бургазлиев, Роман Стабуров, Даниэла Стоянович, Саша Дробитько
О фильме: События разворачиваются на окраине Москвы в 1965 году. В центре - история разоблачения женщины-палача, которая во время войны по указке немцев расстреливала пленных, партизан, мирных жителей. Это фактически отдельная гражданская война изуверки со своим народом. В войну ей едва исполнилось 20 лет, а на ее счету было уже полторы тысячи убийств. Своих жертв она расстреливала из пулемета, прячась за игрушечной маской зайчика. Потом выпивала бутылку самогона и затем появлялась уже на следующее утро без маски и жила обычной жизнью, такой же, как и все остальные...Поэтому после войны вычислить убийцу было очень непросто. Дело это поручили главному следователю. Его подозрения падают то на одну, то на другую женщину...
Качество: HDTVRip
Видео: XviD, ~ 1800 Кбит/с, 720x400
Аудио: AC3, 2 ch, 192 Кбит/с
Продолжительность: 10 х ~ 00:51:00

Скриншоты


mediainfo

General
Complete name : /Palach.HDTVRip.MediaClub/Palach.01.HDTVRip.MediaClub.avi
Format : AVI
Format/Info : Audio Video Interleave
File size : 730 MiB
Duration : 50mn 58s
Overall bit rate : 2 002 Kbps
Writing application : VirtualDubMod 1.5.10.3 | www.virtualdub-fr.org || (build 2550/release)
Writing library : VirtualDub build 32507/release
Video
ID : 0
Format : MPEG-4 Visual
Format profile : Advanced Simple@L5
Format settings, BVOP : 1
Format settings, QPel : No
Format settings, GMC : No warppoints
Format settings, Matrix : Custom
Codec ID : XVID
Codec ID/Hint : XviD
Duration : 50mn 58s
Bit rate : 1 800 Kbps
Width : 720 pixels
Height : 400 pixels
Display aspect ratio : 16:9
Frame rate : 25.000 fps
Color space : YUV
Chroma subsampling : 4:2:0
Bit depth : 8 bits
Scan type : Progressive
Compression mode : Lossy
Bits/(Pixel*Frame) : 0.250
Stream size : 656 MiB (90%)
Writing library : XviD 73
Audio
ID : 1
Format : AC-3
Format/Info : Audio Coding 3
Mode extension : CM (complete main)
Format settings, Endianness : Big
Codec ID : 2000
Duration : 50mn 58s
Bit rate mode : Constant
Bit rate : 192 Kbps
Channel(s) : 2 channels
Channel positions : Front: L R
Sampling rate : 48.0 KHz
Bit depth : 16 bits
Compression mode : Lossy
Stream size : 70.0 MiB (10%)
Alignment : Split accross interleaves
Interleave, duration : 40 ms (1.00 video frame)
Interleave, preload duration : 500 ms

Огромная благодарность Media-Art-Club за созданный постер к раздаче
[Профиль] [ЛС]
Показать сообщения:    

Текущее время: Сегодня 15:55

Часовой пояс: GMT



Вы не можете начинать темы
Вы не можете отвечать на сообщения
Вы не можете редактировать свои сообщения
Вы не можете удалять свои сообщения
Вы не можете голосовать в опросах
Вы не можете прикреплять файлы к сообщениям
Вы не можете скачивать файлы