Палата №6 (Карен Шахназаров, Александр Горновский) [2009, Россия, Драма, DVD5] + Eng (hardsub) + Original Rus / KINO International

 
Автор Сообщение

TorrentFilm ®

Пол:

Стаж: 2 года

Сообщений: 7741



Награды: Нет

Торрент-статистика

Создавать темы 03-Янв-2016 00:05

[Цитировать]

Палата №6 / KINO International
Страна: Россия
Студия: Мосфильм
Жанр: Драма
Год выпуска: 2009
Продолжительность: 01:23:04
Производитель:Kino International
Перевод: Не требуется
Cубтитры: Английские (неотключаемые)
Оригинальная аудиодорожка: Русский
Премьера (мир): 19.09.2009Премьера (РФ): 3.09.2009, «Парадиз»Релиз на DVD: 1.10.2009, «Союз-Видео»
Режиссер: Карен Шахназаров, Александр Горновский
В ролях: Владимир Ильин — Андрей Ефимович Рагин, доктор
Алексей Вертков — Иван Дмитриевич Громов, душевнобольной
Евгений Стычкин — Евгений Хоботов, молодой доктор
Александр Панкратов-Чёрный — Михаил Аверьянович, почтмейстер
Виктор Соловьёв — Никита, сторож больницы
Олег Шапко — жид Моисейка, больной
Анна Синякина — Дарьюшка
Алексей Жарков — старый главврач
Альбина Евтушевская — Дарья, домработница
Описание: Главный врач провинциальной психиатрической больницы Рагин обнаруживает в одном из своих пациентов (Громове) человека с оригинальным мышлением, более того — собственной философией. В беседах с душевнобольным доктор видит безумие мира и скоро сам теряет рассудок. Но кто вправе решать, где та грань, за которой начинается безумие?
Бонусы: Трейлер "Возвращение". Английские встроенные субтитры.

Знаете ли вы, что...

Картина была снята в рекордно короткие сроки — с 5 ноября по 2 декабря 2008 года.
Основной съемочной площадкой фильма «Палата N6» стал психоневрологический интернат, расположенный на территории бывшего Николо-Пешношского монастыря в Дмитровском районе Московской области.
Профессиональные актеры исполнили в фильме только главные роли.
Роли второго плана и массовка были сыграны реальными пациентами интерната, многим из них надо было выучить довольно сложный текст.
Последняя сцена с девочками, где одна смеялась, не сумев сдержать смех, а вторая не могла засмеяться, была снята абсолютно случайно и не была запланирована в сценарии.
Сценарий «Палаты № 6» Карен Шахназаров и Александр Бородянский написали еще в 1988 году, однако тогда проект не состоялся из-за творческих разногласий с итальянскими продюсерами.
Роль Андрея Рагина первоначально должен был сыграть Марчелло Мастроянни.

Награды и номинации

Золотой орел, 2010 год
Победитель :
Лучший режиссер (Карен Шахназаров)
Номинации :
Лучший фильм.
Лучшая мужская роль (Владимир Ильин)
Ника, 2010 год
Победитель :
Лучшая мужская роль (Владимир Ильин)
Номинации :
Лучший фильм.
Лучший режиссер (Карен Шахназаров)
Жорж, 2010 год
Номинации :
Лучшая российская драма
ММКФ, 2009 год
Победитель :
Лучшая мужская роль - Серебряный «Святой Георгий» (Владимир Ильин)
Номинации :
Приз за лучший фильм - Золотой «Святой Георгий»
Меню: Английский, анимированное, озвученное
Сэмпл: http://multi-up.com/908130
Тип релиза: DVD5
Контейнер: DVD-Video
Видео: NTSC 16:9 (720x480) VBR, Auto Letterboxed, 5693 Кбит/сек, 29,970 кадров/сек
Аудио: Русский: AC3, 2 ch (L,R) ch,48.0 KHz, 192 kbps
Формат субтитров:English hardsub (неотключаемые)

Dvd Info

Title: Ward No 6 (2009) NTSC DVD5
Size: 3.72 Gb ( 3 905 544,00 KBytes ) - DVD-5
Enabled regions: 1, 2, 3, 4, 5, 6, 7, 8
VTS_01 :
Play Length: 01:23:04+00:00:00
Video: NTSC 16:9 (720x480) VBR, Auto Letterboxed
Audio:
Russian (Dolby AC3, 2 ch)
VTS_02 :
Play Length: 00:00:14
Video: NTSC 16:9 (720x480) VBR, Auto Letterboxed
Audio:
English (Dolby AC3, 2 ch)
VTS_03 :
Play Length: 00:02:17
Video: NTSC 4:3 (720x480) VBR
Audio:
English (Dolby AC3, 2 ch)

MediaInfo

Общее
Полное имя : M:\Ward No 6 (2009) NTSC DVD5\VIDEO_TS\VTS_01_1.VOB
Формат : MPEG-PS
Размер файла : 1024 Мбайт
Продолжительность : 23 м.
Режим общего битрейта : Переменный
Общий поток : 6004 Кбит/сек
Видео
Идентификатор : 224 (0xE0)
Формат : MPEG Video
Версия формата : Version 2
Профиль формата : Main@Main
Параметр BVOP формата : Да
Параметр матрицы формата : Выборочная
Параметр GOP формата : Variable
Продолжительность : 23 м.
Вид битрейта : Переменный
Битрейт : 5693 Кбит/сек
Максимальный битрейт : 9800 Кбит/сек
Ширина : 720 пикселей
Высота : 480 пикселей
Соотношение сторон : 16:9
Частота кадров : 29,970 кадров/сек
Стандарт вещания : NTSC
Цветовое пространство : YUV
Субдискретизация насыщенности : 4:2:0
Битовая глубина : 8 бит
Тип развёртки : Чересстрочная
Порядок развёртки : Нижнее поле первое
Метод сжатия : С потерями
Бит/(Пиксели*Кадры) : 0.550
Временной код первого кадра : 01:00:00;00
Оригинал временного кода : Group of pictures header
Размер потока : 971 Мбайт (95%)
Аудио
Идентификатор : 189 (0xBD)-128 (0x80)
Формат : AC-3
Формат/Информация : Audio Coding 3
Расширение режима : CM (complete main)
Параметр Endianness формата : Big
Режим смешивания : DVD-Video
Продолжительность : 23 м.
Вид битрейта : Постоянный
Битрейт : 192 Кбит/сек
Каналы : 2 канала
Расположение каналов : Front: L R
Частота : 48,0 КГц
Битовая глубина : 16 бит
Метод сжатия : С потерями
Размер потока : 32,7 Мбайт (3%)

Скриншоты меню

Скриншоты

Скриншоты доп. материалов

Мои раздачи
[Профиль] [ЛС]
Кто просматривает тему:

Показать сообщения:    

Текущее время: Сегодня 10:33

Часовой пояс: GMT



Вы не можете начинать темы
Вы не можете отвечать на сообщения
Вы не можете редактировать свои сообщения
Вы не можете удалять свои сообщения
Вы не можете голосовать в опросах
Вы не можете прикреплять файлы к сообщениям
Вы не можете скачивать файлы