Падение / The Fall (Джон Крюгер / John Krueger) [2008, США, драма, SATRip] DVO (Азъ-Мастер)

 
Автор Сообщение

painkiller ®

Стаж: 2 года 3 месяца

Сообщений: 582



Награды: Нет

Торрент-статистика

Создавать темы 16-Авг-2014 01:26

[Цитировать]

Падение / The Fall
Страна: США
Студия: Dangerous Wounded Animals, Kenneth Kemp Productions
Жанр: драма
Год выпуска: 2008
Продолжительность: 01:54:20
Перевод: Профессиональный (двухголосый закадровый) Азъ-Мастер
Cубтитры: нет
Оригинальная аудиодорожка: нет
Режиссер: Джон Крюгер / John Krueger
В ролях: Бенни Чиарамелло, Уильям Дивэйн, Эрика Хоуг, Скотт Кинуорти, Эрика Шеффер, Грег Бим, Питер Чилелла, Эрика Кертис
Описание: Тони несется бесцельно по жизни, он - полная противоположность своего старшего брата Франка, который тщательно прорабатывает рекламную компанию, чтобы стать самым молодым губернатором в истории. Одна роковая ночь, и Тони арестован за убийство священника, преступление, которое кажется полностью невероятным. Старший брат приезжает для того, чтобы помочь брату, но Тони отказывается назвать, где и с кем он был во время убийства. Франк потрясен, когда узнает, где был Тони, а главное, с кем. Алиби, с одной стороны освободит брата из тюрьмы, но с другой стороны может поставить крест на политической карьере Франка...
II Сэмпл II IMDB II
Доп. информация:
Запись сделана с канала TV XXI
Качество видео: SATRip
Формат видео: AVI
Видео: Xvid 704x400 (16:9) 25.0fps Bit rate 1616Kbps b/p 0.230
Аудио: AC3 48.0 KHz 2ch. 192kbps rus dvo

MediaInfo

Общее
Полное имя : E:\torrent\The.Fall.2008.Satrip.avi
Формат : AVI
Формат/Информация : Audio Video Interleave
Размер файла : 1,45 Гбайт
Продолжительность : 1 ч. 54 м.
Общий поток : 1818 Кбит/сек
Библиотека кодирования : VirtualDub build 32842/release
Видео
Идентификатор : 0
Формат : MPEG-4 Visual
Профиль формата : Advanced Simple@L5
Параметр BVOP формата : 2
Параметр QPel формата : Нет
Параметр GMC формата : Без точки перехода
Параметр матрицы формата : Default (H.263)
Идентификатор кодека : XVID
Идентификатор кодека/Подсказка : XviD
Продолжительность : 1 ч. 54 м.
Битрейт : 1616 Кбит/сек
Ширина : 704 пикселя
Высота : 400 пикселей
Соотношение сторон : 16:9
Частота кадров : 25,000 кадров/сек
Цветовое пространство : YUV
Субдискретизация насыщенности : 4:2:0
Битовая глубина : 8 бит
Тип развёртки : Прогрессивная
Метод сжатия : С потерями
Бит/(Пиксели*Кадры) : 0.230
Размер потока : 1,29 Гбайт (89%)
Библиотека кодирования : XviD 1.2.1 (UTC 2008-12-04)
Аудио
Идентификатор : 1
Формат : AC-3
Формат/Информация : Audio Coding 3
Расширение режима : CM (complete main)
Параметр Endianness формата : Big
Идентификатор кодека : 2000
Продолжительность : 1 ч. 54 м.
Вид битрейта : Постоянный
Битрейт : 192 Кбит/сек
Каналы : 2 канала
Расположение каналов : Front: L R
Частота : 48,0 КГц
Битовая глубина : 16 бит
Метод сжатия : С потерями
Размер потока : 157 Мбайт (11%)
Выравнивание : Соединение по промежуткам
Продолжительность промежутка : 40 мс. (1,00 видеокадр)
Время предзагрузки промежутка : 512 мс.

Скриншот c названием фильма

Скриншоты

[Профиль] [ЛС]

Создавать темы 06-Авг-2015 23:10 (спустя 11 месяцев 21 день)

Топик был перенесен из форума Фильмы до 2014 года в форум Фильмы до 2012 года
sergej644
 

Создавать темы 12-Июн-2016 08:51 (спустя 1 год 9 месяцев)

Топик был перенесен из форума Фильмы 2011 года в форум Фильмы 2006-2008 года
Russian Mafia
 
Показать сообщения:    

Текущее время: Сегодня 06:07

Часовой пояс: GMT



Вы не можете начинать темы
Вы не можете отвечать на сообщения
Вы не можете редактировать свои сообщения
Вы не можете удалять свои сообщения
Вы не можете голосовать в опросах
Вы не можете прикреплять файлы к сообщениям
Вы не можете скачивать файлы