Падение Лондона / London Has Fallen (2016) BDRip 1080p | iTunes

 
Автор Сообщение

достали все ®

Пол:

Стаж: 1 год 8 месяцев

Сообщений: 6565



Награды: 12 (Подробнее)

Mega Releaser 3 (Количество: 1) Top Releaser 3 (Количество: 1) Mega Releaser 2 (Количество: 1)
Торрент-статистика

Создавать темы 04-Июн-2016 09:23

[Цитировать]

Информация о фильме
Название: Падение Лондона
Оригинальное название: London Has Fallen
Год выхода: 2016
Жанр: Боевик, триллер, криминал
Режиссер: Бабак Наджафи
В ролях: Джерард Батлер, Аарон Экхарт, Морган Фримен, Алон Абутбул, Валид Зуэйтер, Адель Беншериф, Мехди Дехби, Шивани Гаи, Мартин Петрушев, Оуэн Дэвис, Майкл Уилдман, Рада Митчелл, Стэйси Шэйн, Пенни Дауни, Кларксон Гай Уильямс, Патрик Кеннеди, Колин Сэлмон, Анджела Бассетт, Дебора Грант, Эндрю Плевин
О фильме:
При загадочных обстоятельствах убит британский премьер-министр. На его похороны съезжаются лидеры крупнейших держав мира. Несмотря на запредельные меры безопасности, неизвестные террористы успешно взрывают приглашенных руководителей государств одного за другим вместе с половиной исторического центра Лондона. Однако, для президента США и его личного телохранителя все только начинается...

Страна: США, Великобритания, Болгария
Студия: Gerard Butler Alan Siegel Entertainment, LHF Film, Millennium Films
Продолжительность: 01:38:42
Перевод: Професиональный (полное дублирование) [iTunes]
Файл
Кодек: x264
Качество: BDRip 1080p
Видео: 1920x804 (2.40:1), 23,976 fps, AVC (H.264), High@L4.1, ~11500 Kbps avg, 0.312 bit/pixel
Аудио #1: 48 kHz, AC3 Dolby Digital, 3/2 (L,C,R,l,r) + LFE ch, ~384.00 kbps avg | RUS
Аудио #2: 48 kHz, AC3 Dolby Digital, 3/2 (L,C,R,l,r) + LFE ch, ~448.00 kbps avg | ENG

MI

General
Unique ID : 189168467785868388269057272748177937157 (0x8E50858BCA104BD79825141B2D08D305)
Complete name : J:СборкаПадение Лондона. - London.Has.Fallen.2016.1080p.BluRay.x264.АС3.mkv
Format : Matroska
Format version : Version 4 / Version 2
File size : 8.51 GiB
Duration : 1h 39mn
Overall bit rate : 12.3 Mbps
Encoded date : UTC 2016-06-03 20:46:47
Writing application : mkvmerge v7.3.0 ('Nouages') 32bit built on Oct 22 2014 18:44:01
Writing library : libebml v1.3.0 + libmatroska v1.4.1
DURATION : 01:38:41.920000000
NUMBER_OF_FRAMES : 185060
NUMBER_OF_BYTES : 331627520
_STATISTICS_WRITING_APP : mkvmerge v7.3.0 ('Nouages') 32bit built on Oct 22 2014 18:44:01
_STATISTICS_WRITING_DATE_UTC : 2016-06-03 20:46:47
_STATISTICS_TAGS : BPS DURATION NUMBER_OF_FRAMES NUMBER_OF_BYTES
Video #1
ID : 1
Format : AVC
Format/Info : Advanced Video Codec
Format profile : High@L4.1
Format settings, CABAC : Yes
Format settings, ReFrames : 5 frames
Codec ID : V_MPEG4/ISO/AVC
Duration : 1h 39mn
Bit rate : 11.5 Mbps
Width : 1 920 pixels
Height : 804 pixels
Display aspect ratio : 2.40:1
Frame rate mode : Constant
Frame rate : 23.976 fps
Color space : YUV
Chroma subsampling : 4:2:0
Bit depth : 8 bits
Scan type : Progressive
Bits/(Pixel*Frame) : 0.312
Stream size : 7.76 GiB (91%)
Writing library : x264 core 129 r2245 bc13772
Encoding settings : cabac=1 / ref=5 / deblock=1:-3:-3 / analyse=0x3:0x133 / me=umh / subme=11 / psy=1 / psy_rd=1.05:0.10 / mixed_ref=1 / me_range=64 / chroma_me=1 / trellis=2 / 8x8dct=1 / cqm=0 / deadzone=21,11 / fast_pskip=0 / chroma_qp_offset=-3 / threads=12 / lookahead_threads=2 / sliced_threads=0 / nr=0 / decimate=1 / interlaced=0 / bluray_compat=0 / constrained_intra=0 / bframes=8 / b_pyramid=2 / b_adapt=2 / b_bias=0 / direct=3 / weightb=1 / open_gop=0 / weightp=2 / keyint=250 / keyint_min=23 / scenecut=40 / intra_refresh=0 / rc_lookahead=60 / rc=2pass / mbtree=1 / bitrate=11542 / ratetol=1.0 / qcomp=0.60 / qpmin=0 / qpmax=69 / qpstep=4 / cplxblur=20.0 / qblur=0.5 / vbv_maxrate=40000 / vbv_bufsize=30000 / nal_hrd=none / ip_ratio=1.40 / aq=1:0.80
Language : English
Default : Yes
Forced : No
DURATION : 01:38:41.916000000
NUMBER_OF_FRAMES : 141984
NUMBER_OF_BYTES : 8512968674
_STATISTICS_WRITING_APP : mkvmerge v7.3.0 ('Nouages') 32bit built on Oct 22 2014 18:44:01
_STATISTICS_WRITING_DATE_UTC : 2016-06-03 20:46:47
_STATISTICS_TAGS : BPS DURATION NUMBER_OF_FRAMES NUMBER_OF_BYTES
Audio #2
ID : 2
Format : AC-3
Format/Info : Audio Coding 3
Mode extension : CM (complete main)
Format settings, Endianness : Big
Codec ID : A_AC3
Duration : 1h 39mn
Bit rate mode : Constant
Bit rate : 384 Kbps
Channel(s) : 6 channels
Channel positions : Front: L C R, Side: L R, LFE
Sampling rate : 48.0 KHz
Bit depth : 16 bits
Compression mode : Lossy
Stream size : 273 MiB (3%)
Title : DUB [iTunes]
Language : Russian
Default : Yes
Forced : No
Audio #3
ID : 3
Format : AC-3
Format/Info : Audio Coding 3
Mode extension : CM (complete main)
Format settings, Endianness : Big
Codec ID : A_AC3
Duration : 1h 39mn
Bit rate mode : Constant
Bit rate : 448 Kbps
Channel(s) : 6 channels
Channel positions : Front: L C R, Side: L R, LFE
Sampling rate : 48.0 KHz
Bit depth : 16 bits
Compression mode : Lossy
Stream size : 318 MiB (4%)
Language : English
Default : No
Forced : No

x264

x264 [info]: frame I:1198 Avg QP:13.77 size:275162
x264 [info]: frame P:33467 Avg QP:15.77 size: 92637
x264 [info]: frame B:107319 Avg QP:17.86 size: 47364
x264 [info]: consecutive B-frames: 3.2% 4.8% 10.2% 17.4% 14.8% 43.2% 4.6% 0.7% 0.9%

Скриншоты

Раздача от:WOODWORKER
[Профиль] [ЛС]
Показать сообщения:    

Текущее время: Сегодня 12:31

Часовой пояс: GMT



Вы не можете начинать темы
Вы не можете отвечать на сообщения
Вы не можете редактировать свои сообщения
Вы не можете удалять свои сообщения
Вы не можете голосовать в опросах
Вы не можете прикреплять файлы к сообщениям
Вы не можете скачивать файлы