О чём не напишут в путеводителе / Word Travels / 1-3 сезоны, 30 серий из 40 [2008-2010, Документальный, познавательный, HDTV 1080i]

 
Автор Сообщение

TorrentFilm ®

Пол:

Стаж: 2 года

Сообщений: 7741



Награды: Нет

Торрент-статистика

Создавать темы 08-Июн-2015 00:04

[Цитировать]

О чём не напишут в путеводителеWord Travels
-Годы выпуска: 2008-2010
Страна: Канада
Производство: Omni Film Productions Ltd, in association with OLN Canada
Жанр: Документальный, познавательный, путешествия
Продолжительность: 30 x ~00:22:30
Режиссёры: Heather Hawthorn-Doyle, Brian Hamilton
В главных ролях: Julia Dimon, Robin Esrock-Перевод: Профессиональный (двухголосый, закадровый) [Студия АРК ТВ - Александр Гаврилин и девушка]
Русские субтитры: нет-Описание: Джулия Даймон и Робин Эсрок приглашают вас в путешествие вокруг света за 90 дней. Джулия и Робин - писатели-путешественники и авторы путевых очерков. Джулии нравится культурный аспект путешествий, а Робину - опасные и рискованные приключения. Они расскажут и покажут вам страны лучше любых рекламных проспектов и путеводителей. В каждой стране им нужно отыскать удивительные истории и написать две разные статьи, чтобы сдать их в популярные журналы и таким образом немного подзаработать. И если у Джулии всегда есть куда "сплавить" свою статью - в журнал своей мамы, то Робину приходится искать самому популярные издания, которые согласятся купить его очерк хотя бы за 100$...-Награда: Gemini Awards - Best Documentary Series, 2010-Тип релиза: HDTV 1080i
Контейнер: MKV-Видео: AVC H.264, 1920x1080i (16:9), 50i fps, ~7320 kbps, ~0.14,1 bits/pixel
Аудио 1: Russian, MP2, 48KHz, 2 channels, 192 kbps
Аудио 2: English, MP2, 48KHz, 2 channels, 192 kbps-Источник: HDTV-запись с телеканала Travel+Adventure HD от san007-Дополнительная информация: Телеканал Travel+Adventure HD почти во всех своих программах обрезает финальные титры (исключение - "Общепит" и "Базарный день"). Поэтому не удивляйтесь тому, что каждая серия будет резко заканчиваться через 1-2 секунды после последнего слова сказанного переводчиком.
В раздачу включен трейлер передачи который выполняет роль семпла. Вы можете сначала скачать только этот трейлер и по нему оценить качество картинки и суть самой передачи.-
Раздача в HDTVRip 720p

Раздачи с Travel+Adventure HD

Путешествие на край света с Артом Вольфом: 1080i, 720p
Путешествие за красотой: 1080i, 720p
Приключения на троих: 1080i, 720p

Список эпизодов

S01E01 Bolivia (Боливия)
S01E02 Ethiopia-1 (Эфиопия-1)
S01E03 Venezuela (Венесуэла)
S01E04 Jordan (Иордания)
S01E05 Colombia (Колумбия)
S01E06 Ethiopia-2 (Эфиопия-2)
S01E07 Dubai, UAE (Дубаи, ОАЭ)
S01E08 Latvia (Латвия)
S01E09 Yukon, Canada (Юкон, Канада)
S01E10 Lithuania (Литва)
S01E11 Thailand (Таиланд)
S01E12 Hong Kong & Macau (Гонконг и Макао)
S01E13 New Zealand (Новая Зеландия)

S02E01 Sri Lanka (Шри Ланка)
S02E02 South Korea (Южная Корея)
S02E03 The Philippines (Филиппины)
S02E04 British Columbia, Canada (Британская Колумбия, Канада)
S02E05 Slovenia (Словения)
S02E06 Romania (Румыния)
S02E07 The Maldives (Мальдивы)
S02E08 Turkey (Турция)
S02E09 Ukraine (Украина)
S02E10 Taiwan (Тайвань)
S02E11 Belize (Белиз)
S02E12 Jamaica (Ямайка)*
S02E13 Mexico (Мексика)

S03E01 Kenya-1 (Кения-1)*
S03E02 Georgia (Грузия)*
S03E03 Nicaragua (Никарагуа)*
S03E04 Chile (Чили)*

* - отсутствует английская аудиодорожка

MediaInfo

Format : Matroska
Format version : Version 4 / Version 2
File size : 1.24 GiB
Duration : 22mn 30s
Overall bit rate : 7 864 Kbps
Writing application : mkvmerge v7.7.0 ('Six Voices') 64bit
Writing library : libebml v1.3.1 + libmatroska v1.4.2
Video
ID : 1
Format : AVC
Format/Info : Advanced Video Codec
Format profile : High@L4.0
Format settings, CABAC : Yes
Format settings, ReFrames : 4 frames
Codec ID : V_MPEG4/ISO/AVC
Duration : 22mn 30s
Bit rate : 7 324 Kbps
Width : 1 920 pixels
Height : 1 080 pixels
Display aspect ratio : 16:9
Frame rate mode : Constant
Frame rate : 25.000 fps
Color space : YUV
Chroma subsampling : 4:2:0
Bit depth : 8 bits
Scan type : MBAFF
Bits/(Pixel*Frame) : 0.141
Stream size : 1.15 GiB (93%)
Default : Yes
Forced : No
Audio #1
ID : 2
Format : MPEG Audio
Format version : Version 1
Format profile : Layer 2
Mode : Joint stereo
Mode extension : Intensity Stereo + MS Stereo
Codec ID : A_MPEG/L2
Codec ID/Hint : MP2
Duration : 22mn 30s
Bit rate mode : Constant
Bit rate : 192 Kbps
Channel(s) : 2 channels
Sampling rate : 48.0 KHz
Compression mode : Lossy
Stream size : 30.9 MiB (2%)
Title : Russian
Language : Russian
Default : Yes
Forced : No
Audio #2
ID : 3
Format : MPEG Audio
Format version : Version 1
Format profile : Layer 2
Mode : Joint stereo
Mode extension : Intensity Stereo + MS Stereo
Codec ID : A_MPEG/L2
Codec ID/Hint : MP2
Duration : 22mn 30s
Bit rate mode : Constant
Bit rate : 192 Kbps
Channel(s) : 2 channels
Sampling rate : 48.0 KHz
Compression mode : Lossy
Stream size : 30.9 MiB (2%)
Title : English
Language : English
Default : No
Forced : No
[Профиль] [ЛС]
Кто просматривает тему:

Форум Тема Автор Размер
Фильмы 2014 года Неизвестная девушка / Проси меня о чём угодно / Ask Me Anything (2014) WEB-DLRip | L1 достали все 1.17 GB
Фильмы (HD Rips | 720p, 1080p) О чём говорят мужчины (Дмитрий Дьяченко) [2010, Россия, комедия, BDRip 720p] + Sub Rus TorrentFilm 3.99 GB
Фильмы (HD Rips | 720p, 1080p) О чём говорят мужчины (Дмитрий Дьяченко) [2010, Россия, комедия, Blu-ray Disc 1080p] TorrentFilm 22.23 GB
Фильмы (HD Rips | 720p, 1080p) О чём ещё говорят мужчины (Дмитрий Дьяченко) [2011, Россия, комедия, BDRip 720p] TorrentFilm 3.53 GB
Фильмы (HD Rips | 720p, 1080p) О чём ещё говорят мужчины (Дмитрий Дьяченко) [2011, Россия, комедия, Blu-ray Disc 1080p] TorrentFilm 30.28 GB
Фильмы (HD Rips | 720p, 1080p) О чём ещё говорят мужчины (Дмитрий Дьяченко) [2011, Россия, комедия, мелодрама, BDRip 720p] TorrentFilm 5.8 GB
Документальные HD О чём не напишут в путеводителе / Word Travels / 1-3 сезоны, 10 серий из 40 [2008-2010, Документальный, познавательный, HDTVRip 720p] TorrentFilm 11.45 GB
Фильмы (HD Rips | 720p, 1080p) Проси меня о чём угодно / Ask Me Anything (2014) WEB-DLRip 720p | L1 достали все 3 GB
Показать сообщения:    

Текущее время: Сегодня 07:13

Часовой пояс: GMT



Вы не можете начинать темы
Вы не можете отвечать на сообщения
Вы не можете редактировать свои сообщения
Вы не можете удалять свои сообщения
Вы не можете голосовать в опросах
Вы не можете прикреплять файлы к сообщениям
Вы не можете скачивать файлы