О чём ещё говорят мужчины (Дмитрий Дьяченко) [2011, Россия, комедия, мелодрама, BDRip 720p]

 
Автор Сообщение

TorrentFilm ®

Пол:

Стаж: 2 года

Сообщений: 7741



Награды: Нет

Торрент-статистика

Создавать темы 12-Фев-2016 00:08

[Цитировать]

О чём ещё говорят мужчины- Год выпуска: 2011
Жанр: Комедия, мелодрама
Продолжительность: 01:38:28
Перевод: не требуется
Оригинальная аудиодорожка: русский
Субтитры: нет
Режиссер: Дмитрий Дьяченко
В ролях:Леонид Барац, Александр Демидов, Камиль Ларин, Ростислав Хаит, Алёна Бабенко, Елена Подкаминская, Екатерина Вилкова, Виталий Хаев, Анатолий Белый, Денис Шведов
Описание: Леша, Слава и Камиль в трудную минуту приходят на помощь своему другу Саше. Накануне Нового года он умудрился вступить в конфликт с женой сотрудника силовых структур, и теперь четверо друзей заперлись в офисе рекламного агентства, которым руководит Саша, пытаясь придумать выход из сложившейся ситуации и коротая время в мужских разговорах.
релиз
Тип релиза: BDRip 720р
Контейнер: MKV
Видео: 1280x544, 24.0 fps, x264@L4.1, crf=16.5, ~7619 kbps avg
Аудио: 48 kHz, AC3, 3/2 (L,C,R,l,r) + LFE ch, ~640.00 kbps avg

MediaInfo

Format : Matroska
Format version : Version 2
File size : 5.80 GiB
Duration : 1h 38mn
Overall bit rate : 8 427 Kbps
Movie name : O chjom ewjo govorjat muzhchiny (2011) - Release for HDCLUB by LexxBlack
Encoded date : UTC 2012-02-20 03:13:04
Writing application : mkvmerge v5.3.0 ('I could have danced') built on Feb 9 2012 10:38:07
Writing library : libebml v1.2.3 + libmatroska v1.3.0
Video
ID : 1
Format : AVC
Format/Info : Advanced Video Codec
Format profile : High@L4.1
Format settings, CABAC : Yes
Format settings, ReFrames : 11 frames
Codec ID : V_MPEG4/ISO/AVC
Duration : 1h 38mn
Bit rate : 7 619 Kbps
Width : 1 280 pixels
Height : 544 pixels
Display aspect ratio : 2.35:1
Frame rate mode : Constant
Frame rate : 24.000 fps
Color space : YUV
Chroma subsampling : 4:2:0
Bit depth : 8 bits
Scan type : Progressive
Bits/(Pixel*Frame) : 0.456
Stream size : 5.24 GiB (90%)
Title : Release for HDCLUB
Writing library : x264 core 120 r2164 da19765
Encoding settings : cabac=1 / ref=11 / deblock=1:-3:-3 / analyse=0x3:0x133 / me=umh / subme=11 / psy=1 / psy_rd=1.10:0.00 / mixed_ref=1 / me_range=32 / chroma_me=1 / trellis=2 / 8x8dct=1 / cqm=0 / deadzone=21,11 / fast_pskip=0 / chroma_qp_offset=-3 / threads=12 / sliced_threads=0 / nr=0 / decimate=1 / interlaced=0 / bluray_compat=0 / constrained_intra=0 / bframes=10 / b_pyramid=2 / b_adapt=2 / b_bias=0 / direct=3 / weightb=1 / open_gop=0 / weightp=2 / keyint=250 / keyint_min=23 / scenecut=40 / intra_refresh=0 / rc_lookahead=60 / rc=crf / mbtree=1 / crf=16.5 / qcomp=0.65 / qpmin=0 / qpmax=69 / qpstep=4 / vbv_maxrate=50000 / vbv_bufsize=62500 / crf_max=0.0 / nal_hrd=none / ip_ratio=1.40 / aq=1:1.00
Language : Russian
Default : Yes
Forced : No
Audio
ID : 2
Format : AC-3
Format/Info : Audio Coding 3
Mode extension : CM (complete main)
Format settings, Endianness : Big
Codec ID : A_AC3
Duration : 1h 38mn
Bit rate mode : Constant
Bit rate : 640 Kbps
Channel(s) : 6 channels
Channel positions : Front: L C R, Side: L R, LFE
Sampling rate : 48.0 KHz
Compression mode : Lossy
Stream size : 451 MiB (8%)
Title : AC3 | 5.1 ch | 48 kHz | 640 kbps | 16 bit
Language : Russian
Default : Yes
Forced : No

Скриншоты

[Профиль] [ЛС]
Кто просматривает тему:

Форум Тема Автор Размер
Фильмы 2014 года Неизвестная девушка / Проси меня о чём угодно / Ask Me Anything (2014) WEB-DLRip | L1 достали все 1.17 GB
Фильмы (HD Rips | 720p, 1080p) О чём говорят мужчины (Дмитрий Дьяченко) [2010, Россия, комедия, BDRip 720p] + Sub Rus TorrentFilm 3.99 GB
Фильмы (HD Rips | 720p, 1080p) О чём говорят мужчины (Дмитрий Дьяченко) [2010, Россия, комедия, Blu-ray Disc 1080p] TorrentFilm 22.23 GB
Фильмы (HD Rips | 720p, 1080p) О чём ещё говорят мужчины (Дмитрий Дьяченко) [2011, Россия, комедия, BDRip 720p] TorrentFilm 3.53 GB
Фильмы (HD Rips | 720p, 1080p) О чём ещё говорят мужчины (Дмитрий Дьяченко) [2011, Россия, комедия, Blu-ray Disc 1080p] TorrentFilm 30.28 GB
Документальные HD О чём не напишут в путеводителе / Word Travels / 1-3 сезоны, 10 серий из 40 [2008-2010, Документальный, познавательный, HDTVRip 720p] TorrentFilm 11.45 GB
Документальные HD О чём не напишут в путеводителе / Word Travels / 1-3 сезоны, 30 серий из 40 [2008-2010, Документальный, познавательный, HDTV 1080i] TorrentFilm 36.88 GB
Фильмы (HD Rips | 720p, 1080p) Проси меня о чём угодно / Ask Me Anything (2014) WEB-DLRip 720p | L1 достали все 3 GB
Показать сообщения:    

Текущее время: Сегодня 11:55

Часовой пояс: GMT



Вы не можете начинать темы
Вы не можете отвечать на сообщения
Вы не можете редактировать свои сообщения
Вы не можете удалять свои сообщения
Вы не можете голосовать в опросах
Вы не можете прикреплять файлы к сообщениям
Вы не можете скачивать файлы