О чём ещё говорят мужчины (Дмитрий Дьяченко) [2011, Россия, комедия, BDRip 720p]

 
Автор Сообщение

TorrentFilm ®

Пол:

Стаж: 2 года

Сообщений: 7741



Награды: Нет

Торрент-статистика

Создавать темы 04-Фев-2016 00:08

[Цитировать]

О чём ещё говорят мужчины
Страна: Россия
Студия: Кинокомпания «Квадрат»
Жанр: комедия
Год выпуска: 2011
Продолжительность: 01:38:28
Перевод: Не требуется
Cубтитры: нет
Оригинальная аудиодорожка: русский
Режиссер: Дмитрий Дьяченко
В ролях: Леонид Барац, Александр Демидов, Камиль Ларин, Ростислав Хаит, Алёна Бабенко, Елена Подкаминская, Екатерина Вилкова, Виталий Хаев, Анатолий Белый, Денис Шведов и др.
Описание: Леша, Слава и Камиль в трудную минуту приходят на помощь своему другу Саше. Накануне Нового года он умудрился вступить в конфликт с женой сотрудника силовых структур, и теперь четверо друзей заперлись в офисе рекламного агентства, которым руководит Саша, пытаясь придумать выход из сложившейся ситуации и коротая время в мужских разговорах.
Доп. информация: За рип благодарим камрада AlexKa
Меню: имеется
Сэмпл: https://yadi.sk/i/w2K-N23-o9V37
Тип релиза: BDRip 720p
Контейнер: MKV
Видео: AVC, 1280х544, 2,35:1, 4688 Кбит/сек, 24 кадра/сек
Аудио: AC-3, 6 каналов, 48,0 КГц, 448 Кбит/сек

MediaInfo

Общее
Уникальный идентификатор : 225369279234565851647593749919565675688 (0xA98C8B5A040A856D8A31A61D31BCFCA8)
Формат : Matroska
Версия формата : Version 2
Размер файла : 3,53 Гбайт
Продолжительность : 1 ч. 38 м.
Общий поток : 5137 Кбит/сек
Дата кодирования : UTC 2014-11-23 21:15:25
Программа кодирования : mkvmerge v5.8.0 ('No Sleep / Pillow') built on Sep 2 2012 15:37:04
Библиотека кодирования : libebml v1.2.3 + libmatroska v1.3.0
Видео
Идентификатор : 1
Формат : AVC
Формат/Информация : Advanced Video Codec
Профиль формата : High@L4.1
Параметр CABAC формата : Да
Параметр ReFrames формата : 11 кадров
Идентификатор кодека : V_MPEG4/ISO/AVC
Продолжительность : 1 ч. 38 м.
Битрейт : 4688 Кбит/сек
Ширина : 1280 пикселей
Высота : 544 пикселя
Соотношение сторон : 2,35:1
Режим частоты кадров : Постоянный
Частота кадров : 24,000 кадра/сек
Цветовое пространство : YUV
Субдискретизация насыщенности : 4:2:0
Битовая глубина : 8 бит
Тип развёртки : Прогрессивная
Бит/(Пиксели*Кадры) : 0.281
Размер потока : 3,15 Гбайт (89%)
Заголовок : Release by AlexKa
Библиотека кодирования : x264 core 142 r2491 24e4fed
Настройки программы : cabac=1 / ref=11 / deblock=1:-3:-3 / analyse=0x3:0x133 / me=umh / subme=11 / psy=1 / psy_rd=1.00:0.00 / mixed_ref=1 / me_range=32 / chroma_me=1 / trellis=2 / 8x8dct=1 / cqm=0 / deadzone=21,11 / fast_pskip=0 / chroma_qp_offset=-2 / threads=12 / lookahead_threads=3 / sliced_threads=0 / nr=0 / decimate=0 / interlaced=0 / bluray_compat=0 / constrained_intra=0 / bframes=11 / b_pyramid=2 / b_adapt=2 / b_bias=0 / direct=3 / weightb=1 / open_gop=0 / weightp=2 / keyint=240 / keyint_min=24 / scenecut=40 / intra_refresh=0 / rc=2pass / mbtree=0 / bitrate=4688 / ratetol=1.0 / qcomp=0.60 / qpmin=0 / qpmax=69 / qpstep=4 / cplxblur=20.0 / qblur=0.5 / ip_ratio=1.40 / pb_ratio=1.30 / aq=1:0.70
Язык : Russian
Default : Да
Forced : Нет
Аудио
Идентификатор : 2
Формат : AC-3
Формат/Информация : Audio Coding 3
Расширение режима : CM (complete main)
Параметр Endianness формата : Big
Идентификатор кодека : A_AC3
Продолжительность : 1 ч. 38 м.
Вид битрейта : Постоянный
Битрейт : 448 Кбит/сек
Каналы : 6 каналов
Расположение каналов : Front: L C R, Side: L R, LFE
Частота : 48,0 КГц
Метод сжатия : С потерями
Размер потока : 316 Мбайт (9%)
Заголовок : Rus
Язык : Russian
Default : Да
Forced : Нет
Меню
00:00:00.000 : :Chapter 01
00:09:24.583 : :Chapter 02
00:18:33.708 : :Chapter 03
00:30:38.666 : :Chapter 04
00:52:20.041 : :Chapter 05
01:03:26.291 : :Chapter 06
01:14:54.916 : :Chapter 07
01:25:16.916 : :Chapter 08

Скриншоты

[Профиль] [ЛС]
Кто просматривает тему:

Форум Тема Автор Размер
Фильмы 2014 года Неизвестная девушка / Проси меня о чём угодно / Ask Me Anything (2014) WEB-DLRip | L1 достали все 1.17 GB
Фильмы (HD Rips | 720p, 1080p) О чём говорят мужчины (Дмитрий Дьяченко) [2010, Россия, комедия, BDRip 720p] + Sub Rus TorrentFilm 3.99 GB
Фильмы (HD Rips | 720p, 1080p) О чём говорят мужчины (Дмитрий Дьяченко) [2010, Россия, комедия, Blu-ray Disc 1080p] TorrentFilm 22.23 GB
Фильмы (HD Rips | 720p, 1080p) О чём ещё говорят мужчины (Дмитрий Дьяченко) [2011, Россия, комедия, Blu-ray Disc 1080p] TorrentFilm 30.28 GB
Фильмы (HD Rips | 720p, 1080p) О чём ещё говорят мужчины (Дмитрий Дьяченко) [2011, Россия, комедия, мелодрама, BDRip 720p] TorrentFilm 5.8 GB
Документальные HD О чём не напишут в путеводителе / Word Travels / 1-3 сезоны, 10 серий из 40 [2008-2010, Документальный, познавательный, HDTVRip 720p] TorrentFilm 11.45 GB
Документальные HD О чём не напишут в путеводителе / Word Travels / 1-3 сезоны, 30 серий из 40 [2008-2010, Документальный, познавательный, HDTV 1080i] TorrentFilm 36.88 GB
Фильмы (HD Rips | 720p, 1080p) Проси меня о чём угодно / Ask Me Anything (2014) WEB-DLRip 720p | L1 достали все 3 GB
Показать сообщения:    

Текущее время: Сегодня 21:01

Часовой пояс: GMT



Вы не можете начинать темы
Вы не можете отвечать на сообщения
Вы не можете редактировать свои сообщения
Вы не можете удалять свои сообщения
Вы не можете голосовать в опросах
Вы не можете прикреплять файлы к сообщениям
Вы не можете скачивать файлы