О чём говорят мужчины (Дмитрий Дьяченко) [2010, Россия, комедия, BDRip 720p] + Sub Rus

 
Автор Сообщение

TorrentFilm ®

Пол:

Стаж: 1 год 11 месяцев

Сообщений: 7741



Награды: Нет

Торрент-статистика

Создавать темы 10-Фев-2016 00:08

[Цитировать]

О чём говорят мужчины- Год выпуска: 2010
Жанр: Комедия
Продолжительность: 01:36:32
Навигация по главам: есть (как на BluRay)
Перевод: не требуется
Оригинальная аудиодорожка: русский
Субтитры: есть (rus)
Режиссер: Дмитрий Дьяченко
В ролях: Леонид Барац, Ростислав Хаит, Александр Демидов, Камиль Ларин, Нонна Гришаева, Нина Русланова, Сергей Никоненко, Федор Добронравов, Анна Касаткина-Барац, Жанна Фриске
Описание: О чем говорят мужчины? Конечно, о женщинах. Нет, еще о работе, о деньгах, о машинах, о футболе,… но в основном, все-таки, о женщинах. А уж если у них впереди два дня, которые они, вырвавшись из офисов и семей, уехав от всех забот и обязательств, проведут в дороге — два дня, насыщенные событиями и приключениями — то можете быть уверены, что за это время они успеют обсудить немало тем…
И еще. Из этих разговоров — это мы точно знаем — многие женщины узнают о себе очень много нового…
релиз
Тип релиза: BDRip 720р
Контейнер: MKV
Видео: 1280x692, 24.000 fps, x264@L4.1 ~6599 kbps avg
Аудио: 48 kHz, DTS, 3/2 (L,C,R,l,r) + LFE ch, ~1536.00 kbps avg
Формат субтитров: softsub (SRT)

MediaInfo

Format : Matroska
Format version : Version 2
File size : 5.46 GiB
Duration : 1h 36mn
Overall bit rate : 8 098 Kbps
Movie name : О чем говорят мужчины (2010) Release for HDCLUB by -= Andrew Placid =-
Encoded date : UTC 2010-04-18 15:21:09
Writing application : mkvmerge v3.3.0 ('Language') built on Mar 24 2010 14:59:24
Writing library : libebml v0.8.0 + libmatroska v0.9.0
Video
ID : 1
Format : AVC
Format/Info : Advanced Video Codec
Format profile : High@L4.1
Format settings, CABAC : Yes
Format settings, ReFrames : 9 frames
Codec ID : V_MPEG4/ISO/AVC
Duration : 1h 36mn
Bit rate : 6 599 Kbps
Width : 1 280 pixels
Height : 692 pixels
Display aspect ratio : 1.85:1
Frame rate mode : Constant
Frame rate : 24.000 fps
Color space : YUV
Chroma subsampling : 4:2:0
Bit depth : 8 bits
Scan type : Progressive
Bits/(Pixel*Frame) : 0.310
Stream size : 4.33 GiB (79%)
Title : Release for HDCLUB by -= Andrew Placid =-
Writing library : x264 core 92 r1523kMod 25ca5b0
Encoding settings : cabac=1 / ref=9 / deblock=1:-3:-3 / analyse=0x3:0x113 / me=umh / subme=10 / psy=1 / psy_rd=1.00:0.00 / mixed_ref=1 / me_range=32 / chroma_me=1 / trellis=2 / 8x8dct=1 / cqm=0 / deadzone=21,11 / fast_pskip=0 / chroma_qp_offset=-2 / threads=6 / sliced_threads=0 / nr=0 / decimate=0 / interlaced=0 / constrained_intra=0 / bframes=9 / b_pyramid=2 / b_adapt=2 / b_bias=0 / direct=3 / wpredb=1 / wpredp=2 / keyint=250 / keyint_min=25 / scenecut=40 / intra_refresh=0 / rc=2pass / mbtree=0 / bitrate=6599 / ratetol=1.0 / qcomp=0.60 / qpmin=10 / qpmax=51 / qpstep=4 / cplxblur=20.0 / qblur=0.5 / ip_ratio=1.40 / pb_ratio=1.30 / aq=1:0.80
Language : English
Default : No
Forced : No
Audio
ID : 2
Format : DTS
Format/Info : Digital Theater Systems
Mode : 16
Format settings, Endianness : Big
Codec ID : A_DTS
Duration : 1h 36mn
Bit rate mode : Constant
Bit rate : 1 509 Kbps
Channel(s) : 6 channels
Channel positions : Front: L C R, Side: L R, LFE
Sampling rate : 48.0 KHz
Bit depth : 16 bits
Compression mode : Lossy
Stream size : 1.02 GiB (19%)
Title : DTS 5.1ch 1536 kbps [Оригинал]
Language : Russian
Default : Yes
Forced : No
Text
ID : 3
Format : UTF-8
Codec ID : S_TEXT/UTF8
Codec ID/Info : UTF-8 Plain Text
Language : Russian
Default : No
Forced : No
Menu
00:00:00.000 : en:00:00:00.000
00:02:51.875 : en:00:02:51.875
00:13:42.875 : en:00:13:42.875
00:23:48.417 : en:00:23:48.417
00:32:05.917 : en:00:32:05.917
00:43:22.958 : en:00:43:22.958
00:54:26.167 : en:00:54:26.167
01:03:57.042 : en:01:03:57.042
01:10:42.083 : en:01:10:42.083
01:18:53.667 : en:01:18:53.667
01:25:03.292 : en:01:25:03.292
01:32:03.042 : en:01:32:03.042

Скриншоты

[Профиль] [ЛС]
Кто просматривает тему:

Форум Тема Автор Размер
Фильмы 2014 года Неизвестная девушка / Проси меня о чём угодно / Ask Me Anything (2014) WEB-DLRip | L1 достали все 1.17 GB
Фильмы (HD Rips | 720p, 1080p) О чём говорят мужчины (Дмитрий Дьяченко) [2010, Россия, комедия, BDRip 720p] + Sub Rus TorrentFilm 3.99 GB
Фильмы (HD Rips | 720p, 1080p) О чём говорят мужчины (Дмитрий Дьяченко) [2010, Россия, комедия, Blu-ray Disc 1080p] TorrentFilm 22.23 GB
Фильмы (HD Rips | 720p, 1080p) О чём ещё говорят мужчины (Дмитрий Дьяченко) [2011, Россия, комедия, BDRip 720p] TorrentFilm 3.53 GB
Фильмы (HD Rips | 720p, 1080p) О чём ещё говорят мужчины (Дмитрий Дьяченко) [2011, Россия, комедия, Blu-ray Disc 1080p] TorrentFilm 30.28 GB
Фильмы (HD Rips | 720p, 1080p) О чём ещё говорят мужчины (Дмитрий Дьяченко) [2011, Россия, комедия, мелодрама, BDRip 720p] TorrentFilm 5.8 GB
Документальные HD О чём не напишут в путеводителе / Word Travels / 1-3 сезоны, 10 серий из 40 [2008-2010, Документальный, познавательный, HDTVRip 720p] TorrentFilm 11.45 GB
Документальные HD О чём не напишут в путеводителе / Word Travels / 1-3 сезоны, 30 серий из 40 [2008-2010, Документальный, познавательный, HDTV 1080i] TorrentFilm 36.88 GB
Показать сообщения:    

Текущее время: Сегодня 07:05

Часовой пояс: GMT



Вы не можете начинать темы
Вы не можете отвечать на сообщения
Вы не можете редактировать свои сообщения
Вы не можете удалять свои сообщения
Вы не можете голосовать в опросах
Вы не можете прикреплять файлы к сообщениям
Вы не можете скачивать файлы