О, счастливчик! (2009) Blu-Ray Remux 1080p | Лицензия

 
Автор Сообщение

достали все ®

Пол:

Стаж: 1 год 8 месяцев

Сообщений: 6571



Награды: 12 (Подробнее)

Mega Seeder 3 (Количество: 1) Top Releaser 2 (Количество: 1) За внесенный вклад в развитие сайта (Количество: 1)
Торрент-статистика

Создавать темы 15-Апр-2016 04:02

[Цитировать]

Информация о фильме
Название: О, счастливчик!
Год выхода: 2009
Жанр: Комедия, приключения, фэнтези
Режиссёр: Эдуард Парри
В ролях: Михаил Тарабукин, Владимир Меньшов, Сергей Шакуров, Владимир Кристовский, Ольга Полякова, Вячеслав Разбегаев, Семен Фурман, Сергей Векслер, Армен Джигарханян, Алексей Панин, Андрей Мерзликин, Максим Коновалов, Виталий Хаев, Сергей Зверев, Александр Стефанцов, Игорь Куролесов, Алексей Дмитриев, Александр Ясинский, Евгений Хоменок, Дмитрий Гаврилов, Елена Лабутина
О фильме:
Это молодёжная комедия о том, как в один прекрасный день, Славику, обычному молодому человеку показалось, что жизнь его слишком банальна, непримечательна и лишена всяческого смысла. У него нет приличной работы, образования, девушки… Он решает умереть, прыгнув с моста. Но неожиданно появляются два экстравагантных джентльмена: Олег Генрихович и Константин Германович, которые убеждают героя в том, что самоубийство - не выход. Ему предлагают поменять свою биографию и начать новую благополучную жизнь. Но как только Славик избавляется от собственных проблем, тут же начинаются новые! Игра в «чужую» жизнь превращается в калейдоскоп веселых, грустных, а порой и страшных историй...

Выпущено: Россия, Star Media, Kyiv Film
Продолжительность: 01:35:53
Перевод: Не требуется
Файл
Контейнер: MKV
Формат: MPEG-4 AVC
Качество: Blu-Ray Remux (1080p) [Исходник: Blu-ray RUS 1080p AVC LPCM 5.1]
Видео: MPEG-4 AVC, 1920x1080 (16:9), ~ 25 Мбит/с, 24 кадр/с, 0.492 bit/pixel
Аудио #1: Русский, Dolby AC3, 48000 Гц, 640 Кбит/с, 6 каналов (5.1) - Оригинал
Аудио #2: Русский, DTS, 48000 Гц, 1510 Кбит/с, 6 каналов (5.1) - Оригинал
Субтитры: Русские, украинские (полные, SRT)
Навигация по главам: Есть (Сохранены оригинальные чаптеры, как на Blu-ray)

MediaInfo

General
Unique ID : 241354086439062737478478888848877037099 (0xB5931B31B6B84E1D8551DD8BB98E262B)
Complete name : O.schastlivchik.2009.BDRemux.1080p.mkv
Format : Matroska
Format version : Version 4 / Version 2
File size : 18.2 GiB
Duration : 1h 35mn
Overall bit rate mode : Variable
Overall bit rate : 27.2 Mbps
Movie name : О, счастливчик! (2009) Blu-ray Remux (1080p) от ivandubskoj
Encoded date : UTC 2016-04-14 14:45:59
Writing application : mkvmerge v7.8.0 ('River Man') 64bit built on Mar 27 2015 16:31:37
Writing library : libebml v1.3.1 + libmatroska v1.4.2
Video
ID : 1
Format : AVC
Format/Info : Advanced Video Codec
Format profile : High@L4.1
Format settings, CABAC : Yes
Format settings, ReFrames : 4 frames
Format settings, GOP : M=3, N=18
Codec ID : V_MPEG4/ISO/AVC
Duration : 1h 35mn
Bit rate mode : Variable
Bit rate : 24.5 Mbps
Maximum bit rate : 30.0 Mbps
Width : 1 920 pixels
Height : 1 080 pixels
Display aspect ratio : 16:9
Frame rate mode : Constant
Frame rate : 24.000 fps
Standard : NTSC
Color space : YUV
Chroma subsampling : 4:2:0
Bit depth : 8 bits
Scan type : Progressive
Bits/(Pixel*Frame) : 0.492
Stream size : 16.4 GiB (90%)
Title : О, счастливчик! (2009)
Language : Russian
Default : Yes
Forced : No
Color primaries : BT.709
Transfer characteristics : BT.709
Matrix coefficients : BT.709
Color range : Limited
Audio #1
ID : 2
Format : AC-3
Format/Info : Audio Coding 3
Mode extension : CM (complete main)
Format settings, Endianness : Big
Codec ID : A_AC3
Duration : 1h 35mn
Bit rate mode : Constant
Bit rate : 640 Kbps
Channel(s) : 6 channels
Channel positions : Front: L C R, Side: L R, LFE
Sampling rate : 48.0 KHz
Bit depth : 16 bits
Compression mode : Lossy
Stream size : 439 MiB (2%)
Title : Original [DD 5.1]
Language : Russian
Default : Yes
Forced : No
Audio #2
ID : 3
Format : DTS
Format/Info : Digital Theater Systems
Mode : 16
Format settings, Endianness : Big
Codec ID : A_DTS
Duration : 1h 35mn
Bit rate mode : Constant
Bit rate : 1 509 Kbps
Channel(s) : 6 channels
Channel positions : Front: L C R, Side: L R, LFE
Sampling rate : 48.0 KHz
Bit depth : 24 bits
Compression mode : Lossy
Stream size : 1.01 GiB (6%)
Title : Original [DTS 5.1]
Language : Russian
Default : No
Forced : No
Text #1
ID : 4
Format : UTF-8
Codec ID : S_TEXT/UTF8
Codec ID/Info : UTF-8 Plain Text
Title : Full
Language : Russian
Default : No
Forced : No
Text #2
ID : 5
Format : UTF-8
Codec ID : S_TEXT/UTF8
Codec ID/Info : UTF-8 Plain Text
Title : Full
Language : Ukrainian
Default : No
Forced : No
Menu
00:00:00.000 : ru:Chapter 01
00:05:02.291 : ru:Chapter 02
00:16:06.916 : ru:Chapter 03
00:22:08.916 : ru:Chapter 04
00:30:50.750 : ru:Chapter 05
00:37:01.583 : ru:Chapter 06
00:42:19.125 : ru:Chapter 07
00:49:46.541 : ru:Chapter 08
01:00:50.500 : ru:Chapter 09
01:08:29.541 : ru:Chapter 10
01:21:59.000 : ru:Chapter 11
01:32:25.541 : ru:Chapter 12
01:35:51.416 : ru:Chapter 13

Скриншоты

Автор ремукса - ivandubskoj
[Профиль] [ЛС]
Показать сообщения:    

Текущее время: Сегодня 04:21

Часовой пояс: GMT



Вы не можете начинать темы
Вы не можете отвечать на сообщения
Вы не можете редактировать свои сообщения
Вы не можете удалять свои сообщения
Вы не можете голосовать в опросах
Вы не можете прикреплять файлы к сообщениям
Вы не можете скачивать файлы