О бедном гусаре замолвите слово (1980) DVDRip-AVC от ExKinoRay

 
Автор Сообщение

sergej644 ®

Пол:

Стаж: 4 года 11 месяцев

Сообщений: 6040

Откуда: Soviet Union



Награды: Нет

Торрент-статистика

Создавать темы 29-Авг-2016 23:08

[Цитировать]

Информация о фильме
Название: О бедном гусаре замолвите слово
Год выхода: 1980
Жанр: мюзикл, драма, мелодрама, комедия
Режиссер: Эльдар Рязанов
В ролях: Олег Басилашвили, Евгений Леонов, Ирина Мазуркевич, Станислав Садальский, Валентин Гафт, Александр Белявский, Георгий Бурков, Зиновий Гердт, Виктор Павлов, Борис Брондуков, Владимир Носик, Николай Кочегаров, Валерий Погорельцев, Наталья Гундарева, Светлана Немоляева, Лия Ахеджакова, Валентина Талызина, Григорий Шпигель, Готлиб Ронинсон, Виктор Филиппов, Зоя Василькова, Анатолий Веденкин, Марина Голуб
О фильме: Действие картины происходит примерно через 20 лет после Отечественной войны 1812 года. Небольшой городок взбудоражен вступлением гусарского полка. В это время в город прибывает из Санкт-Петербурга чиновник граф Мерзляев, имеющий поручение проверить нескольких гусар этого полка на благонадёжность. В местной тюрьме сидит попавший туда за скандальный поступок провинциальный актёр Бубенцов, дочь которого — Настю — любит подозреваемый в неблагонадёжности корнет Плетнёв. Мерзляев привлекает Бубенцова для своей операции, заставив его разыгрывать роль опасного бунтовщика, которого под конвоем должен перевезти Плетнёв. Бубенцов настолько входит в образ, что Плетнёв из сострадания отпускает его на свободу, после чего на Бубенцова начинается уже настоящая охота…
Страна: СССР, Мосфильм
Продолжительность: 2 х ~ 01:20:05
Перевод: не требуется
Файл
Кодек: MKV
Качество: DVDRip-AVC
Видео: MPEG-4 AVC, 2350 Кбит/с, 720x574@768x574
Звук: AC3, 6 ch, 448 Кбит/с

Скриншоты


Медиа-Инфо

raw [info]: 720x574p 16:15 @ 25/1 fps (cfr)
x264 [info]: using SAR=16/15
x264 [info]: using cpu capabilities: MMX2 SSE2Fast SSSE3 SSE4.2 AVX
x264 [info]: profile High, level 4.1
x264 [info]: frame I:670 Avg QP:16.86 size: 59983
x264 [info]: frame P:27638 Avg QP:20.23 size: 24005
x264 [info]: frame B:90321 Avg QP:21.55 size: 7641
============================================================================================================
Общее
Уникальный идентификатор : 172442359286732178033375934474253940541 (0x81BB30BA5378674C864AE42E47DEB73D)
Полное имя : R:МОИ РИПЫО бедном гусаре замолвите слово_1980-DVDRip-AVCГусар-1.mkv
Формат : Matroska
Версия формата : Version 2
Размер файла : 1,55 Гбайт
Продолжительность : 1 ч. 19 м.
Общий поток : 2799 Кбит/сек
Дата кодирования : UTC 2015-07-02 13:47:35
Программа кодирования : mkvmerge v5.8.0 ('No Sleep / Pillow') built on Sep 2 2012 15:37:04
Библиотека кодирования : libebml v1.2.3 + libmatroska v1.3.0
Видео
Идентификатор : 1
Формат : AVC
Формат/Информация : Advanced Video Codec
Профиль формата : High@L4.1
Параметр CABAC формата : Да
Параметр ReFrames формата : 15 кадров
Идентификатор кодека : V_MPEG4/ISO/AVC
Продолжительность : 1 ч. 19 м.
Битрейт : 2350 Кбит/сек
Ширина : 720 пикселей
Высота : 574 пикселя
Соотношение сторон : 4:3
Режим частоты кадров : Постоянный
Частота кадров : 25,000 кадров/сек
Цветовое пространство : YUV
Субдискретизация насыщенности : 4:2:0
Битовая глубина : 8 бит
Тип развёртки : Прогрессивная
Бит/(Пиксели*Кадры) : 0.227
Размер потока : 1,27 Гбайт (82%)
Библиотека кодирования : x264 core 146 r2538 121396c
Настройки программы : cabac=1 / ref=15 / deblock=1:-2:-2 / analyse=0x3:0x133 / me=umh / subme=10 / psy=1 / psy_rd=1.05:0.05 / mixed_ref=1 / me_range=32 / chroma_me=1 / trellis=2 / 8x8dct=1 / cqm=0 / deadzone=21,11 / fast_pskip=0 / chroma_qp_offset=-3 / threads=12 / lookahead_threads=2 / sliced_threads=0 / nr=0 / decimate=0 / interlaced=0 / bluray_compat=0 / constrained_intra=0 / bframes=7 / b_pyramid=2 / b_adapt=2 / b_bias=0 / direct=3 / weightb=1 / open_gop=0 / weightp=2 / keyint=250 / keyint_min=25 / scenecut=40 / intra_refresh=0 / rc=2pass / mbtree=0 / bitrate=2350 / ratetol=1.0 / qcomp=0.65 / qpmin=0 / qpmax=39 / qpstep=4 / cplxblur=20.0 / qblur=0.5 / ip_ratio=1.40 / pb_ratio=1.30 / aq=1:1.00
Язык : English
Default : Да
Forced : Нет
Основные цвета : BT.601 PAL
Характеристики трансфера : BT.470 System B, BT.470 System G
Коэффициенты матрицы : BT.601
Аудио
Идентификатор : 2
Формат : AC-3
Формат/Информация : Audio Coding 3
Расширение режима : CM (complete main)
Параметр Endianness формата : Big
Идентификатор кодека : A_AC3
Продолжительность : 1 ч. 19 м.
Вид битрейта : Постоянный
Битрейт : 448 Кбит/сек
Каналы : 6 каналов
Расположение каналов : Front: L C R, Side: L R, LFE
Частота : 48,0 КГц
Битовая глубина : 16 бит
Метод сжатия : С потерями
Задержка видео : 1 с. 53 мс.
Размер потока : 253 Мбайт (16%)
Язык : Russian
Default : Да
Forced : Нет
Релиз от:
Автор релиза:
[Профиль] [ЛС]
Кто просматривает тему:

Показать сообщения:    

Текущее время: Сегодня 04:49

Часовой пояс: GMT



Вы не можете начинать темы
Вы не можете отвечать на сообщения
Вы не можете редактировать свои сообщения
Вы не можете удалять свои сообщения
Вы не можете голосовать в опросах
Вы не можете прикреплять файлы к сообщениям
Вы не можете скачивать файлы