Ошибка молодости / Les pieds dans le plat (Симон Астье / Simon Astier) [2010, Франция, комедия, DVB] Original (Fre) + Sub (Rus, Eng, Fre, Deu)

 
Автор Сообщение

TorrentFilm ®

Пол:

Стаж: 2 года

Сообщений: 7741



Награды: Нет

Торрент-статистика

Создавать темы 03-Апр-2016 00:09

[Цитировать]

Ошибка молодости
Les pieds dans le plat- Страна: Франция
Жанр: комедия
Год выпуска: 2010
Продолжительность: 01:27:13
Перевод: Субтитры (перевод М.Кузиной, Éclair Group)
Cубтитры: русские, английские, французские, немецкие, нидерландские
Оригинальная аудиодорожка: французский
Режиссер: Симон Астье / Simon AstierВ ролях: Мари-Жюли Бо / Marie-Julie Baup (Anouchka Stern), Джонатан Коэн / Jonathan Cohen (Samuel Benhaim), Макс Бублиль / Max Boublil (Benjamin Benhaim), Циля Шелтон / Tsilla Chelton (Sonia), Симон Астье / Simon Astier (Journaliste), Фанни Коттенсон / Fanny Cottençon (Judith Alban Stern), Мишель Жонас / Michel Jonasz (Maurice Benhaim)
Описание: За несколько дней до своей свадьбы Анушка узнает, что Люсьен не является ее отцом. Она отправляется на поиски своих биологических родителей, что ставит семью в затруднительное положение, ведь теперь под вопросом ее еврейское происхождение...
Доп. информация: Hot Bird (13.0°E) TV5MONDE Europe DVB-S

Качество видео: DVB
Формат видео: MKV
Видео: MPEG Video 2, 720x576@1024x576 (16:9), 25 fps, ~2883 kbps avg, 0.287 bit/pixel
Аудио: MPEG Audio 2, 2 ch, 48 kHz, 192 kbps - французский
Формат субтитров: softsub (SRT)

Пример субтитров

100:00:07,177 --> 00:00:10,177ОШИБКА МОЛОДОСТИ
200:01:04,457 --> 00:01:06,423Анушка!
300:01:06,423 --> 00:01:09,423Анушка!
400:01:15,138 --> 00:01:18,138Ануш!
500:01:19,339 --> 00:01:22,339Анушка!
600:01:35,222 --> 00:01:37,982Прекрати звонить.Дай ей встать.
700:01:37,982 --> 00:01:40,222Скоро твой брат прилетит.
800:01:40,222 --> 00:01:42,418Надо было заночевать в аэропорту?
900:01:42,418 --> 00:01:45,418Я его полгода не видела.Хорошо, что ты женишься.
1000:01:45,816 --> 00:01:48,182Мама, прекрати!Умоляю тебя.
1100:01:48,182 --> 00:01:50,783Я возьму досье,и сразу поедем.
1200:01:50,783 --> 00:01:52,897-Анушка!-Соседей разбудишь!
1300:01:52,897 --> 00:01:55,180Ее нет дома?Она не дома ночевала?
1400:01:55,180 --> 00:01:57,461Свадьба через 2 недели!
1500:01:57,461 --> 00:01:59,462А ты досье потерял!
1600:01:59,462 --> 00:02:00,548У меня мигрень.
1700:02:00,548 --> 00:02:03,225Спокойно. Все в порядке.Я все улажу.
1800:02:03,225 --> 00:02:06,225Все подготовлю.
1900:02:06,260 --> 00:02:08,349АЙ!
2000:02:08,349 --> 00:02:09,342Папа

MediaInfo

GeneralUnique ID : 253996597676551268000600810527093467723 (0xBF15F71F757A9A8F84D75A6C3338AA4B)Complete name : [apreder]Les_pieds_dans_le_plat(2010)DVB.mkvFormat : MatroskaFormat version : Version 2File size : 1.91 GiBDuration : 1h 27mnOverall bit rate : 3 137 KbpsMovie name : Les pieds dans le platReleased date : 2010-00-00Encoded date : UTC 2016-04-02 08:10:08Writing application : mkvmerge v9.0.1 ('Obstacles') 64bitWriting library : libebml v1.3.3 + libmatroska v1.4.4Cover : YesAttachments : cover.jpg / cover_small.jpgACTOR : Marie-Julie Baup, Jonathan Cohen, Max BoublilDIRECTOR : Simon AstierGENRE : ComedyIMDB : tt2167815KEYWORDS : torrentfilm.netLAW_RATING : 16+
VideoID : 1Format : MPEG VideoFormat version : Version 2Format profile : Main@MainFormat settings, BVOP : YesFormat settings, Matrix : CustomFormat settings, GOP : VariableFormat settings, picture structure : FrameCodec ID : V_MPEG2Codec ID/Info : MPEG 1 or 2 VideoDuration : 1h 27mnBit rate : 2 883 KbpsMaximum bit rate : 3 200 KbpsWidth : 720 pixelsHeight : 576 pixelsDisplay aspect ratio : 16:9Frame rate mode : ConstantFrame rate : 25.000 fpsStandard : PALColor space : YUVChroma subsampling : 4:2:0Bit depth : 8 bitsScan type : InterlacedScan order : Top Field FirstCompression mode : LossyBits/(Pixel*Frame) : 0.278Stream size : 1.76 GiB (92%)Default : YesForced : No
AudioID : 2Format : MPEG AudioFormat version : Version 1Format profile : Layer 2Mode : Joint stereoMode extension : Intensity Stereo + MS StereoCodec ID : A_MPEG/L2Codec ID/Hint : MP2Duration : 1h 27mnBit rate mode : ConstantBit rate : 192 KbpsChannel(s) : 2 channelsSampling rate : 48.0 KHzCompression mode : LossyDelay relative to video : 2msStream size : 120 MiB (6%)Language : FrenchDefault : YesForced : No
Text #1ID : 3Format : UTF-8Codec ID : S_TEXT/UTF8Codec ID/Info : UTF-8 Plain TextLanguage : RussianDefault : NoForced : No
Text #2ID : 4Format : UTF-8Codec ID : S_TEXT/UTF8Codec ID/Info : UTF-8 Plain TextLanguage : EnglishDefault : NoForced : No
Text #3ID : 5Format : UTF-8Codec ID : S_TEXT/UTF8Codec ID/Info : UTF-8 Plain TextLanguage : FrenchDefault : NoForced : No
Text #4ID : 6Format : UTF-8Codec ID : S_TEXT/UTF8Codec ID/Info : UTF-8 Plain TextLanguage : GermanDefault : NoForced : No
Text #5ID : 7Format : UTF-8Codec ID : S_TEXT/UTF8Codec ID/Info : UTF-8 Plain TextLanguage : DutchDefault : NoForced : No

Скриншот c названием фильма

Скриншоты


Резервные скриншоты


- [2'997]
[Профиль] [ЛС]

Создавать темы 12-Июн-2016 07:53 (спустя 2 месяца 9 дней)

Топик был перенесен из форума Фильмы 2011 года в форум Фильмы 2010 года
Russian Mafia
 
Кто просматривает тему:

Форум Тема Автор Размер
BBC BBC: Мир природы. Ошибки природы / Natural World. Natures Misfits (Gavin Boyland / Гевин Бойленд) [2014 г., Документальный, познавательный, флора, фауна, HDRip 720p] skorpionN 1.45 GB
Фильмы (DVD 5/9) Без права на ошибку / Сапёры (Борис Щербаков, Василий Щербаков) [2007, Россия, Украина, военный фильм, DVD5] TorrentFilm 3.49 GB
Отечественные cериалы Без права на ошибку [01-02 из 02] (2016) HDTVRip достали все 2.73 GB
Фильмы 2015 года Все ошибки зарыты / All Mistakes Buried (2015) | WEB-DLRip | L2 BOSS 1.38 GB
Документальные HD Вся Моя Жизнь - Сплошная Ошибка (Юлия Ермолина) [2015, Документальный, HDTV 720p] TorrentFilm 1.57 GB
Документальные HD Георгий Жженов. Вся моя жизнь - сплошная ошибка (Юлия Ермолина) [2015, Документальный, HDTV 1080i] TorrentFilm 4.3 GB
Разная литература Максим Омариев - 21 критическая ошибка новичка в шахматах (2014) PDF достали все 15 MB
Фильмы (HD Rips | 720p, 1080p) Ошибка времени / Time Lapse (2014) BDRip 1080p | P Russian Mafia 7.77 GB
Показать сообщения:    

Текущее время: Сегодня 10:44

Часовой пояс: GMT



Вы не можете начинать темы
Вы не можете отвечать на сообщения
Вы не можете редактировать свои сообщения
Вы не можете удалять свои сообщения
Вы не можете голосовать в опросах
Вы не можете прикреплять файлы к сообщениям
Вы не можете скачивать файлы