Ошибка времени / Time Lapse (2014) BDRip 1080p | P

 
Автор Сообщение

Russian Mafia ®

Пол:

Стаж: 1 год 8 месяцев

Сообщений: 4257



Награды: 10 (Подробнее)

Mega Seeder 5 (Количество: 1) За внесенный вклад в развитие сайта (Количество: 1) Top Releaser 2 (Количество: 1)
Торрент-статистика

Создавать темы 23-Мар-2016 19:10

[Цитировать]

Информация о фильме
Название: Ошибка времени
Оригинальное название: Time Lapse
Год выхода: 2014
Жанр: Фантастика, триллер
Режиссер: Брэдли Кинг
В ролях: Даниэль Панабэйкер, Мэтт О`Лири, Джордж Финн, Эймин Джозеф, Джейсон Спайсэк, Дэвид Фильоли, Шэрон Мофан, Джудит Дрэйк, Марк С. Хэнсон
О фильме:
Трое приятелей — подающий надежды художник и по совместительству управдом Финн, его девушка официантка и писательница Кэлли и их друг Джаспер, помешанный на собачьих гонках, — находят в комнате соседа-ученого странное изобретение — машину, печатающую фотографии из будущего дня. Теперь Джаспер знает, на каких собак нужно ставить, и Финн и Кэлли могут, наконец, посвятить себя любимым занятиям. Но вскоре визуальные пророчества загадочной машины начинают обескураживать и пугать героев…

Страна: США
Студия: Uncooperative Pictures
Продолжительность: 01:44:08
Перевод: Профессиональный (многоголосый закадровый)
Файл
Кодек: MPEG4 Video (H264)
Качество: BDRip 1080p | P
Видео: 1920x1080, 10035 Кбит/сек, 23.976fps
Звук:
Аудио #1: Русский, Dolby AC3, 192 Кбит/с, 2 каналов (2.0) - MVO
Аудио #2: Английский, Dolby AC3, 448 Кбит/с, 6 каналов (5.1) - Оригинал
Субтитры: Русские (Полные), английские (SDH)

Mediainfo

x264 [info]: frame I:1143 Avg QP:14.59 size:159635
x264 [info]: frame P:39366 Avg QP:15.57 size: 77701
x264 [info]: frame B:109299 Avg QP:17.92 size: 42047
x264 [info]: consecutive B-frames: 4.1% 3.3% 25.1% 16.8% 14.8% 31.3% 2.3% 0.9% 1.5%
Общее
Уникальный идентификатор : 218527476465994564705445853945971240989 (0xA466DC6E68F8B93286E4D88D3436701D)
Полное имя : D:FilmTime Lapse.2014.BDRip.1080p.mkv
Формат : Matroska
Версия формата : Version 2
Размер файла : 7,77 Гбайт
Продолжительность : 1 ч. 44 м.
Общий поток : 10,7 Мбит/сек
Название фильма : Time Lapse.2014.BDRip.1080p
Дата кодирования : UTC 2016-03-23 17:53:08
Программа кодирования : mkvmerge v4.0.0 ('The Stars were mine') сборка от Jun 6 2010 16:18:42
Библиотека кодирования : libebml v1.0.0 + libmatroska v1.0.0
Видео
Идентификатор : 1
Формат : AVC
Формат/Информация : Advanced Video Codec
Профиль формата : High@L4.1
Параметр CABAC формата : Да
Параметр ReFrames формата : 4 кадра
Идентификатор кодека : V_MPEG4/ISO/AVC
Продолжительность : 1 ч. 44 м.
Битрейт : 10,0 Мбит/сек
Ширина : 1920 пикселей
Высота : 1080 пикселей
Соотношение сторон : 16:9
Режим частоты кадров : Постоянный
Частота кадров : 23,976 (23976/1000) кадра/сек
Цветовое пространство : YUV
Субдискретизация насыщенности : 4:2:0
Битовая глубина : 8 бит
Тип развёртки : Прогрессивная
Бит/(Пиксели*Кадры) : 0.202
Размер потока : 7,15 Гбайт (92%)
Заголовок : Rip by -=WALLEDOL=-
Библиотека кодирования : x264 core 148 r2665 a01e339
Настройки программы : cabac=1 / ref=4 / deblock=1:-3:-3 / analyse=0x3:0x133 / me=umh / subme=10 / psy=1 / psy_rd=1.00:0.10 / mixed_ref=1 / me_range=32 / chroma_me=1 / trellis=2 / 8x8dct=1 / cqm=0 / deadzone=21,11 / fast_pskip=0 / chroma_qp_offset=-3 / threads=6 / lookahead_threads=1 / sliced_threads=0 / nr=0 / decimate=1 / interlaced=0 / bluray_compat=0 / constrained_intra=0 / bframes=8 / b_pyramid=2 / b_adapt=2 / b_bias=0 / direct=3 / weightb=1 / open_gop=0 / weightp=2 / keyint=240 / keyint_min=23 / scenecut=40 / intra_refresh=0 / rc=2pass / mbtree=0 / bitrate=10035 / ratetol=1.0 / qcomp=0.60 / qpmin=0 / qpmax=69 / qpstep=4 / cplxblur=20.0 / qblur=0.5 / ip_ratio=1.40 / pb_ratio=1.30 / aq=1:1.00
Язык : English
Default : Нет
Forced : Нет
Аудио #1
Идентификатор : 2
Формат : AC-3
Формат/Информация : Audio Coding 3
Расширение режима : CM (complete main)
Параметр Endianness формата : Big
Идентификатор кодека : A_AC3
Продолжительность : 1 ч. 44 м.
Вид битрейта : Постоянный
Битрейт : 192 Кбит/сек
Каналы : 2 канала
Расположение каналов : Front: L R
Частота : 48,0 КГц
Частота кадров : 31,250 кадров/сек (1536 spf)
Метод сжатия : С потерями
Размер потока : 143 Мбайт (2%)
Заголовок : MVO
Язык : Russian
Default : Да
Forced : Да
Аудио #2
Идентификатор : 3
Формат : AC-3
Формат/Информация : Audio Coding 3
Расширение режима : CM (complete main)
Параметр Endianness формата : Big
Идентификатор кодека : A_AC3
Продолжительность : 1 ч. 44 м.
Вид битрейта : Постоянный
Битрейт : 448 Кбит/сек
Каналы : 6 каналов
Расположение каналов : Front: L C R, Side: L R, LFE
Частота : 48,0 КГц
Частота кадров : 31,250 кадров/сек (1536 spf)
Метод сжатия : С потерями
Размер потока : 334 Мбайт (4%)
Язык : English
Default : Нет
Forced : Нет
Текст #1
Идентификатор : 4
Формат : UTF-8
Идентификатор кодека : S_TEXT/UTF8
Идентификатор кодека/Информация : UTF-8 Plain Text
Заголовок : Full
Язык : Russian
Default : Нет
Forced : Нет
Текст #2
Идентификатор : 5
Формат : UTF-8
Идентификатор кодека : S_TEXT/UTF8
Идентификатор кодека/Информация : UTF-8 Plain Text
Заголовок : SDH
Язык : English
Default : Нет
Forced : Нет
Меню
00:00:00.000 : en:Chapter 1
00:04:39.529 : en:Chapter 2
00:14:20.568 : en:Chapter 3
00:25:30.403 : en:Chapter 4
00:34:59.597 : en:Chapter 5
00:44:53.982 : en:Chapter 6
00:55:05.301 : en:Chapter 7
01:00:37.717 : en:Chapter 8
01:10:58.420 : en:Chapter 9
01:18:21.488 : en:Chapter 10
01:28:01.734 : en:Chapter 11
01:38:57.973 : en:Chapter 12
01:44:07.991 : en:Chapter 13

Скриншоты

[Профиль] [ЛС]
Кто просматривает тему:

Форум Тема Автор Размер
BBC BBC: Мир природы. Ошибки природы / Natural World. Natures Misfits (Gavin Boyland / Гевин Бойленд) [2014 г., Документальный, познавательный, флора, фауна, HDRip 720p] skorpionN 1.45 GB
Фильмы (DVD 5/9) Без права на ошибку / Сапёры (Борис Щербаков, Василий Щербаков) [2007, Россия, Украина, военный фильм, DVD5] TorrentFilm 3.49 GB
Отечественные cериалы Без права на ошибку [01-02 из 02] (2016) HDTVRip достали все 2.73 GB
Фильмы 2015 года Все ошибки зарыты / All Mistakes Buried (2015) | WEB-DLRip | L2 BOSS 1.38 GB
Документальные HD Вся Моя Жизнь - Сплошная Ошибка (Юлия Ермолина) [2015, Документальный, HDTV 720p] TorrentFilm 1.57 GB
Документальные HD Георгий Жженов. Вся моя жизнь - сплошная ошибка (Юлия Ермолина) [2015, Документальный, HDTV 1080i] TorrentFilm 4.3 GB
Разная литература Максим Омариев - 21 критическая ошибка новичка в шахматах (2014) PDF достали все 15 MB
Фильмы 2014 года Ошибка времени / Time Lapse (2014) BDRip 720p | P достали все 5.11 GB
Показать сообщения:    

Текущее время: Сегодня 00:35

Часовой пояс: GMT



Вы не можете начинать темы
Вы не можете отвечать на сообщения
Вы не можете редактировать свои сообщения
Вы не можете удалять свои сообщения
Вы не можете голосовать в опросах
Вы не можете прикреплять файлы к сообщениям
Вы не можете скачивать файлы