Ошибка времени / Time Lapse (2014) BDRip 720p | P

 
Автор Сообщение

достали все ®

Пол:

Стаж: 1 год 8 месяцев

Сообщений: 6613



Награды: 12 (Подробнее)

Mega Seeder 1 (Количество: 1) Top Releaser 3 (Количество: 1) Mega Releaser 1 (Количество: 1)
Торрент-статистика

Создавать темы 20-Мар-2016 12:32

[Цитировать]

Оригинальное название: Time Lapse
Название: Ошибка времени
Жанр: Фантастика, Триллер
Режиссёр: Брэдли Кинг
Год: 2014
В ролях:
Даниэль Панабэйкер, Мэтью О’Лири, Джордж Финн, Джон Рис-Дэвис, Эймин Джозеф, Джейсон Спайсэк, Дэвид Фильоли, Шэрон Мофан, Джудит Дрэйк, Марк С. Хэнсон

Трое приятелей - подающий надежды художник и по совместительству управдом Финн, его девушка официантка и писательница Кэлли и их друг Джаспер, помешанный на собачьих гонках, — находят в комнате соседа-ученого странное изобретение — машину, печатающую фотографии из будущего дня. Теперь Джаспер знает, на каких собак нужно ставить, и Финн и Кэлли могут, наконец, посвятить себя любимым занятиям. Но вскоре визуальные пророчества загадочной машины начинают обескураживать и пугать героев…
Информация:
Страна: США
Студия: Royal Pictures
Продолжительность: 01:44
Перевод: Профессиональный (многоголосый закадровый)
Кодек: MPEG-4 AVC,
Качество: BDRip 720p
Видео: 6200 Кбит/с, 1280x720
Звук: Русский (AC3, 2 ch, 192 Кбит/с), английский (AC3, 6 ch, 640 Кбит/с)
Субтитры: Английские
--

Mediainfo:

Общее
Уникальный идентификатор : 195160317886177122871733339355130180899 (0x92D282907E9B987D83ACF36530D53523)
Полное имя : D:MediatОшибка времени Time Lapse (2014) BDRip 720pOshibka.vremeni.2014.P.BDRip.720p.mkv
Формат : Matroska
Версия формата : Version 4 / Version 2
Размер файла : 5,11 Гбайт
Продолжительность : 1 ч. 44 м.
Общий поток : 7029 Кбит/сек
Дата кодирования : UTC 2016-03-19 19:41:06
Программа кодирования : mkvmerge v8.2.0 ('World of Adventure') 64bit
Библиотека кодирования : libebml v1.3.1 + libmatroska v1.4.2
Видео
Идентификатор : 1
Формат : AVC
Формат/Информация : Advanced Video Codec
Профиль формата : High@L4.1
Параметр CABAC формата : Да
Параметр ReFrames формата : 9 кадров
Идентификатор кодека : V_MPEG4/ISO/AVC
Продолжительность : 1 ч. 44 м.
Битрейт : 6200 Кбит/сек
Ширина : 1280 пикселей
Высота : 720 пикселей
Соотношение сторон : 16:9
Режим частоты кадров : Постоянный
Частота кадров : 23,976 (24000/1001) кадра/сек
Цветовое пространство : YUV
Субдискретизация насыщенности : 4:2:0
Битовая глубина : 8 бит
Тип развёртки : Прогрессивная
Бит/(Пиксели*Кадры) : 0.281
Размер потока : 4,51 Гбайт (88%)
Библиотека кодирования : x264 core 146 r2538 121396c
Настройки программы : cabac=1 / ref=9 / deblock=1:-3:-3 / analyse=0x3:0x133 / me=umh / subme=10 / psy=1 / psy_rd=1.00:0.00 / mixed_ref=1 / me_range=32 / chroma_me=1 / trellis=2 / 8x8dct=1 / cqm=0 / deadzone=21,11 / fast_pskip=0 / chroma_qp_offset=-2 / threads=12 / lookahead_threads=2 / sliced_threads=0 / nr=0 / decimate=1 / interlaced=0 / bluray_compat=0 / constrained_intra=0 / bframes=8 / b_pyramid=2 / b_adapt=2 / b_bias=0 / direct=3 / weightb=1 / open_gop=0 / weightp=2 / keyint=250 / keyint_min=23 / scenecut=40 / intra_refresh=0 / rc_lookahead=40 / rc=2pass / mbtree=0 / bitrate=6200 / ratetol=1.0 / qcomp=0.65 / qpmin=0 / qpmax=69 / qpstep=4 / cplxblur=20.0 / qblur=0.5 / vbv_maxrate=62500 / vbv_bufsize=78125 / nal_hrd=none / filler=0 / ip_ratio=1.40 / pb_ratio=1.30 / aq=3:0.70
Язык : English
Default : Да
Forced : Нет
Аудио #1
Идентификатор : 2
Формат : AC-3
Формат/Информация : Audio Coding 3
Расширение режима : CM (complete main)
Параметр Endianness формата : Big
Идентификатор кодека : A_AC3
Продолжительность : 1 ч. 44 м.
Вид битрейта : Постоянный
Битрейт : 192 Кбит/сек
Каналы : 2 канала
Расположение каналов : Front: L R
Частота : 48,0 КГц
Частота кадров : 31,250 кадров/сек (1536 spf)
Метод сжатия : С потерями
Размер потока : 143 Мбайт (3%)
Язык : Russian
Default : Да
Forced : Да
Аудио #2
Идентификатор : 3
Формат : AC-3
Формат/Информация : Audio Coding 3
Расширение режима : CM (complete main)
Параметр Endianness формата : Big
Идентификатор кодека : A_AC3
Продолжительность : 1 ч. 44 м.
Вид битрейта : Постоянный
Битрейт : 640 Кбит/сек
Каналы : 6 каналов
Расположение каналов : Front: L C R, Side: L R, LFE
Частота : 48,0 КГц
Частота кадров : 31,250 кадров/сек (1536 spf)
Метод сжатия : С потерями
Размер потока : 477 Мбайт (9%)
Заголовок : Original
Язык : English
Default : Нет
Forced : Нет
Текст #1
Идентификатор : 4
Формат : UTF-8
Идентификатор кодека : S_TEXT/UTF8
Идентификатор кодека/Информация : UTF-8 Plain Text
Продолжительность : 1 ч. 38 м.
Битрейт : 50 бит/сек
Count of elements : 990
Размер потока : 36,1 Кбайт (0%)
Заголовок : Original
Язык : English
Default : Нет
Forced : Нет
Текст #2
Идентификатор : 5
Формат : UTF-8
Идентификатор кодека : S_TEXT/UTF8
Идентификатор кодека/Информация : UTF-8 Plain Text
Продолжительность : 1 ч. 39 м.
Битрейт : 52 бит/сек
Count of elements : 1170
Размер потока : 38,7 Кбайт (0%)
Заголовок : Original / SDH
Язык : English
Default : Нет
Forced : Нет
Меню
00:00:00.000 : en:1
00:04:39.528 : en:2
00:14:20.567 : en:3
00:25:30.403 : en:4
00:34:59.597 : en:5
00:44:53.983 : en:6
00:55:05.302 : en:7
01:00:37.717 : en:8
01:10:58.421 : en:9
01:18:21.488 : en:10
01:28:01.734 : en:11
01:38:57.974 : en:12
-

Скриншоты

--
[Профиль] [ЛС]
Кто просматривает тему:

Форум Тема Автор Размер
BBC BBC: Мир природы. Ошибки природы / Natural World. Natures Misfits (Gavin Boyland / Гевин Бойленд) [2014 г., Документальный, познавательный, флора, фауна, HDRip 720p] skorpionN 1.45 GB
Фильмы (DVD 5/9) Без права на ошибку / Сапёры (Борис Щербаков, Василий Щербаков) [2007, Россия, Украина, военный фильм, DVD5] TorrentFilm 3.49 GB
Отечественные cериалы Без права на ошибку [01-02 из 02] (2016) HDTVRip достали все 2.73 GB
Фильмы 2015 года Все ошибки зарыты / All Mistakes Buried (2015) | WEB-DLRip | L2 BOSS 1.38 GB
Документальные HD Вся Моя Жизнь - Сплошная Ошибка (Юлия Ермолина) [2015, Документальный, HDTV 720p] TorrentFilm 1.57 GB
Документальные HD Георгий Жженов. Вся моя жизнь - сплошная ошибка (Юлия Ермолина) [2015, Документальный, HDTV 1080i] TorrentFilm 4.3 GB
Разная литература Максим Омариев - 21 критическая ошибка новичка в шахматах (2014) PDF достали все 15 MB
Фильмы (HD Rips | 720p, 1080p) Ошибка времени / Time Lapse (2014) BDRip 1080p | P Russian Mafia 7.77 GB
Показать сообщения:    

Текущее время: Сегодня 00:35

Часовой пояс: GMT



Вы не можете начинать темы
Вы не можете отвечать на сообщения
Вы не можете редактировать свои сообщения
Вы не можете удалять свои сообщения
Вы не можете голосовать в опросах
Вы не можете прикреплять файлы к сообщениям
Вы не можете скачивать файлы