Очная ставка (Валерий Кремнев) [1986, детектив, драма, DVB]

 
Автор Сообщение

reversefile ®

Пол:

Стаж: 4 года 5 месяцев

Сообщений: 842

Откуда: ReverseFile.org



Награды: Нет

Торрент-статистика

Создавать темы 25-Июл-2014 01:16

[Цитировать]

Очная ставка
18.07.14 торрент обновлен, добавил в раздачу запись трансляции ТК "Москва Доверие". Другая цветовая гамма, другое наполнение кадра, больший битрейт. Преимущества и недостатки на сравнении
Жанр: детектив, драма
Год выпуска: 1986
Продолжительность: 01:24:29
Режиссёр: Валерий Кремнев
В ролях: Елена Сафонова, Николай Караченцов, Людмила Полякова, Елена Попова, Борис Драпкин, Ярослав Есиновский, Анатолий Егоров, Юрий Веялис, Виктор Шульгин, Кира Головко, Юрий Ильчук, Любовь Соколова, Валентин Кулик, Борис Токарев (II)
Описание: В квартире Анны, которая, судя по ее показаниям следствию, была в командировке, ночью возник пожар. Сын был спасен, но в результате нервного потрясения потерял дар речи. Следствию, матери и отцу ребенка предстоит выяснить истинную причину трагедии.
Доп. информация: Запись потока *.ts со спутника ABS-2, 75° в.д., ремукс в *.mpg программой VideoReDo.
Постер из коллекции советских киноплакатов коллеги tokarevamarina
Качество видео: DVB
Формат видео: MPEG-PS
Видео "Дом Кино": MPEG Video, 720(768)x576 (4:3), 25,000 кадров/сек, 2947 Кбит/сек
Видео "Доверие": MPEG Video, 720(768)x576 (4:3), 25,000 кадров/сек, 3186 Кбит/сек
Аудио: MPEG Audio, 48,0 КГц, 192 Кбит/сек, 2 канала

MediaInfo

Общее
Полное имя : D:\MPG\ОЧНАЯ СТАВКА (Дом Кино).mpg
Формат : MPEG-PS
Размер файла : 1,89 Гбайт
Продолжительность : 1 ч. 24 м.
Режим общего битрейта : Переменный
Общий поток : 3202 Кбит/сек
Видео
Идентификатор : 224 (0xE0)
Формат : MPEG Video
Версия формата : Version 2
Профиль формата : Main@Main
Параметр BVOP формата : Да
Параметр матрицы формата : Выборочная
Параметр GOP формата : M=3, N=12
Продолжительность : 1 ч. 24 м.
Вид битрейта : Переменный
Битрейт : 2947 Кбит/сек
Максимальный битрейт : 5000 Кбит/сек
Ширина : 720 пикселей
Высота : 576 пикселей
Соотношение сторон : 4:3
Частота кадров : 25,000 кадров/сек
Стандарт вещания : PAL
Цветовое пространство : YUV
Субдискретизация насыщенности : 4:2:0
Битовая глубина : 8 бит
Тип развёртки : Чересстрочная
Порядок развёртки : Верхнее поле первое
Метод сжатия : С потерями
Бит/(Пиксели*Кадры) : 0.284
Временной код первого кадра : 00:00:00:00
Оригинал временного кода : Group of pictures header
Размер потока : 1,74 Гбайт (92%)
Аудио
Идентификатор : 192 (0xC0)
Формат : MPEG Audio
Версия формата : Version 1
Профиль формата : Layer 2
Продолжительность : 1 ч. 24 м.
Вид битрейта : Постоянный
Битрейт : 192 Кбит/сек
Каналы : 2 канала
Частота : 48,0 КГц
Метод сжатия : С потерями
Задержка видео : 20 мс.
Размер потока : 116 Мбайт (6%)
Общее
Полное имя : D:\Torrent\Очная ставка\ОЧНАЯ СТАВКА (Moskva Doverie).mpg
Формат : MPEG-PS
Размер файла : 2,03 Гбайт
Продолжительность : 1 ч. 24 м.
Режим общего битрейта : Переменный
Общий поток : 3446 Кбит/сек
Видео
Идентификатор : 224 (0xE0)
Формат : MPEG Video
Версия формата : Version 2
Профиль формата : Main@Main
Параметр BVOP формата : Да
Параметр матрицы формата : Выборочная
Параметр GOP формата : M=3, N=12
Продолжительность : 1 ч. 24 м.
Вид битрейта : Переменный
Битрейт : 3186 Кбит/сек
Максимальный битрейт : 15,0 Мбит/сек
Ширина : 720 пикселей
Высота : 576 пикселей
Соотношение сторон : 4:3
Частота кадров : 25,000 кадров/сек
Стандарт вещания : PAL
Цветовое пространство : YUV
Субдискретизация насыщенности : 4:2:0
Битовая глубина : 8 бит
Тип развёртки : Чересстрочная
Порядок развёртки : Верхнее поле первое
Метод сжатия : С потерями
Бит/(Пиксели*Кадры) : 0.307
Временной код первого кадра : 00:00:00:00
Оригинал временного кода : Group of pictures header
Размер потока : 1,88 Гбайт (92%)
Аудио
Идентификатор : 192 (0xC0)
Формат : MPEG Audio
Версия формата : Version 1
Профиль формата : Layer 2
Продолжительность : 1 ч. 24 м.
Вид битрейта : Постоянный
Битрейт : 192 Кбит/сек
Каналы : 2 канала
Частота : 48,0 КГц
Метод сжатия : С потерями
Задержка видео : 11 мс.
Размер потока : 116 Мбайт (6%)

Скриншоты Дом Кино

Скриншоты Доверие

[Профиль] [ЛС]

Создавать темы 06-Авг-2015 22:06 (спустя 1 год)

Топик был перенесен из форума Кино СССР в форум Кино СССР
sergej644
 
Показать сообщения:    

Текущее время: Сегодня 09:10

Часовой пояс: GMT



Вы не можете начинать темы
Вы не можете отвечать на сообщения
Вы не можете редактировать свои сообщения
Вы не можете удалять свои сообщения
Вы не можете голосовать в опросах
Вы не можете прикреплять файлы к сообщениям
Вы не можете скачивать файлы