Очищение / Puhdistus / Purge (Антти Йокинен / Antti Jokinen) [2012, Финляндия, Эстония, драма, история, BDRip 720p] Subs (Rus, Eng) + Original (Fin)

 
Автор Сообщение

Создавать темы 19-Июл-2014 15:15

Очищение / Puhdistus / Purge Страна: Финляндия, Эстония
Жанр: драма, история
Год выпуска: 2012
Продолжительность: 02:05:35
Перевод: Субтитры
Cубтитры: английские, русские (creo140)
Оригинальная аудиодорожка: финский
Режиссер: Антти Йокинен / Antti Jokinen
В ролях: Лаура Бирн, Лийси Тандефельт, Аманда Пилке, Петер Францен, Криста Косонен, Томми Корпела, Кристиан Сарв, Ярмо Мякинен, Яаника Арум, Томи Салмела
Описание:
История двух женщин из разных эпох, чьи жизни одинаково полны обмана, отчаяния и страха. Алиида пережила кошмар сталинских лагерей и депортацию эстонцев в Сибирь. Одновременно ей приходится жить с чувством вины за свой оппортунизм и даже за гибель людей. Однажды ночью в 1992 году она находит во внутреннем дворике своего дома молодую женщину: Зара скрывается от бандитов русской мафии, которые держали ее как сексуальную рабыню. Впоследствии выясняется, что Алиида и Зара — родственницы. Постепенно их отношения и их истории сплетаются в сложную сеть…
- -Тип релиза: BDRip 720p (рип от VivaLaChina@NoVA)

Контейнер: MKV
Видео: AVC (x264), 1280x544 (2,35:1) at 23,976 fps, 9400 Кbps, 0.563 bpp
Аудио 1: DTS; 768 Kbps; CBR; 6 ch; 48 khz | Финский |
Формат субтитров: softsub (SRT)
Скриншоты || x264 Info || MediaInfo || NotesNotes: Русские субтитры взяты с этой раздачи, thx: creo140
Озвучка из этой раздачи, не добавлена ввиду низкого качества (дутая, клиппинг, местами оригинал сливается с озвучкой) + у диктора страшный ukr акцент

MediaInfo

Общее
Уникальный идентификатор                 : 172979989280984822617169037595663852544 (0x8222BBEEDE7D2FD28D6DF71B50FEE400)
Полное имя                               : Очищение.2012.RUSSUB.720p.BluRay.x264-NoVA.mkv
Формат                                   : Matroska
Версия формата                           : Version 4 / Version 2
Размер файла                             : 8,88 Гбайт
Продолжительность                        : 2 ч. 5 м.
Общий поток                              : 10,1 Мбит/сек
Название фильма                          : Purge [720p] [2012] RUS SUB
Дата кодирования                         : UTC 2014-06-28 20:48:53
Программа кодирования                    : mkvmerge v7.0.0 ('Where We Going') 32bit built on Jun  9 2014 15:08:34
Библиотека кодирования                   : libebml v1.3.0 + libmatroska v1.4.1
Видео
Идентификатор                            : 1
Формат                                   : AVC
Формат/Информация                        : Advanced Video Codec
Профиль формата                          : High@L4.1
Параметр CABAC формата                   : Да
Параметр ReFrames формата                : 12 кадров
Идентификатор кодека                     : V_MPEG4/ISO/AVC
Продолжительность                        : 2 ч. 5 м.
Битрейт                                  : 9400 Кбит/сек
Ширина                                   : 1280 пикселей
Высота                                   : 544 пикселя
Соотношение сторон                       : 2,35:1
Режим частоты кадров                     : Постоянный
Частота кадров                           : 23,976 кадра/сек
Цветовое пространство                    : YUV
Субдискретизация насыщенности            : 4:2:0
Битовая глубина                          : 8 бит
Тип развёртки                            : Прогрессивная
Бит/(Пиксели*Кадры)                      : 0.563
Размер потока                            : 8,03 Гбайт (90%)
Заголовок                                : profile.php?mode=viewprofile&u=22488948
Библиотека кодирования                   : x264 core 138 r2358 9e941d1
Настройки программы                      : cabac=1 / ref=12 / deblock=1:-3:-3 / analyse=0x3:0x113 / me=tesa / subme=11 / psy=1 / psy_rd=1.00:0.00 / mixed_ref=1 / me_range=24 / chroma_me=1 / trellis=2 / 8x8dct=1 / cqm=0 / deadzone=21,11 / fast_pskip=0 / chroma_qp_offset=-2 / threads=12 / lookahead_threads=2 / sliced_threads=0 / nr=0 / decimate=0 / interlaced=0 / bluray_compat=0 / constrained_intra=0 / bframes=8 / b_pyramid=2 / b_adapt=2 / b_bias=0 / direct=3 / weightb=1 / open_gop=0 / weightp=2 / keyint=240 / keyint_min=23 / scenecut=40 / intra_refresh=0 / rc_lookahead=40 / rc=2pass / mbtree=0 / bitrate=9400 / ratetol=1.0 / qcomp=0.75 / qpmin=0 / qpmax=69 / qpstep=4 / cplxblur=20.0 / qblur=0.5 / vbv_maxrate=62500 / vbv_bufsize=78125 / nal_hrd=none / ip_ratio=1.40 / pb_ratio=1.30 / aq=1:0.75
Язык                                     : Finnish
Default                                  : Да
Forced                                   : Нет
Аудио
Идентификатор                            : 2
Формат                                   : DTS
Формат/Информация                        : Digital Theater Systems
Режим                                    : 16
Параметр Endianness формата              : Big
Идентификатор кодека                     : A_DTS
Продолжительность                        : 2 ч. 5 м.
Вид битрейта                             : Постоянный
Битрейт                                  : 768 Кбит/сек
Каналы                                   : 6 каналов
Расположение каналов                     : Front: L C R, Side: L R, LFE
Частота                                  : 48,0 КГц
Битовая глубина                          : 24 бит
Метод сжатия                             : С потерями
Размер потока                            : 690 Мбайт (8%)
Язык                                     : Finnish
Default                                  : Да
Forced                                   : Нет
Текст #1
Идентификатор                            : 3
Формат                                   : UTF-8
Идентификатор кодека                     : S_TEXT/UTF8
Идентификатор кодека/Информация          : UTF-8 Plain Text
Заголовок                                : [creo140]
Язык                                     : Russian
Default                                  : Да
Forced                                   : Нет
Текст #2
Идентификатор                            : 4
Формат                                   : UTF-8
Идентификатор кодека                     : S_TEXT/UTF8
Идентификатор кодека/Информация          : UTF-8 Plain Text
Язык                                     : English
Default                                  : Нет
Forced                                   : Нет
Меню
00:00:00.000                             : en:
00:09:08.464                             : en:
00:19:01.223                             : en:
00:32:32.450                             : en:
00:44:28.332                             : en:
00:52:24.641                             : en:
01:04:03.589                             : en:
01:12:40.397                             : en:
01:26:13.293                             : en:
01:32:33.589                             : en:
01:51:58.837                             : en:
02:02:09.989                             : en:
 
Показать сообщения:    

Текущее время: Сегодня 21:33

Часовой пояс: GMT



Вы не можете начинать темы
Вы не можете отвечать на сообщения
Вы не можете редактировать свои сообщения
Вы не можете удалять свои сообщения
Вы не можете голосовать в опросах
Вы не можете прикреплять файлы к сообщениям
Вы не можете скачивать файлы