Очень Юрское кино / Jurassic World (2016) BDRip 720p | Смешной перевод

 
Автор Сообщение

BOSS ®

Пол:

Стаж: 2 года 1 месяц

Сообщений: 3746

Откуда: ODESSA



Награды: 20 (Подробнее)

Top Seeder 3 (Количество: 1) Top Releaser 3 (Количество: 1) Mega Seeder 3 (Количество: 1)
Торрент-статистика

Создавать темы 22-Июн-2016 16:57

[Цитировать]

Информация о фильме
Название: Очень Юрское кино
Оригинальное название: Jurassic World
Год выхода: 2015 / 2016
Жанр: пародия, комедия, юмористический перевод
Режиссер: Колин Треворроу, BadDog
В ролях: Крис Пратт, Брайс Даллас Ховард, Ник Дж. Робинсон, Тай Симпкинс, Винсент Д’Онофрио, Ирфан Кхан, Омар Си, Б.Д. Вонг, Джейк Джонсон, Джуди Грир
О фильме:
Смешной перевод фильма "Мир Юрского периода".
В далеком Юрском периоде на отдаленном ото всех острове жило племя разумных динозавров во главе с вегетарианцем Ти-Рексом. Они жили в мире и согласии друг с другом. Но в один прекрасный день на Землю обрушился метеорит, посланный из далекой галактики разумными жуками-злюками, и уничтожил все живое. Прошли миллионы лет. Теперь на Земле живут люди. В 21 веке ученые находят на том самом острове ковчег с выжившим племенем Ти-Рекса. Люди дружатся с динозаврами и строят для них заповедник. И все было прекрасно, пока однажды жуки-злюки не узнали о выжившем племени…
Страна: США, Китай
Продолжительность: 01:56:01
Перевод: Любительский одноголосый (смешной перевод студии B.D.production)
Файл
Качество: BDRip 720p
Формат: MKV
Видео: 1280x640, 23.976 fps, MPEG-4 AVC, ~5 085 kbps avg, 0.259 bit/pixel
Аудио: 48 kHz, AC-3, 2 ch, ~192.00 kbps avg
Семпл
Примечание автора раздачи:
Релиз от Альянса Вольных Переводчиков.
Присутствует нецензурная лексика.
Пародия монтажная, присутствуют вставки из других фильмов.
HD-версию подготовил kro44i.
Официальный сайт

MI

General
Unique ID : 249976541040800407008426085653783996440 (0xBC0FBB07310057C8823AC2ABD12F6818)
Complete name : D:__==film_FOchen.Jurskoe.kino.2016.BDRip.720p.mkv
Format : Matroska
Format version : Version 2
File size : 4.28 GiB
Duration : 1h 56mn
Overall bit rate : 5 279 Kbps
Encoded date : UTC 2016-06-14 06:00:00
Writing application : mkvmerge v7.8.0 ('River Man') 32bit built on Apr 3 2015 12:11:22
Writing library : libebml v1.3.1 + libmatroska v1.4.2
Video
ID : 1
Format : AVC
Format/Info : Advanced Video Codec
Format profile : High@L3.1
Format settings, CABAC : Yes
Format settings, ReFrames : 5 frames
Codec ID : V_MPEG4/ISO/AVC
Duration : 1h 56mn
Bit rate : 5 085 Kbps
Width : 1 280 pixels
Height : 640 pixels
Display aspect ratio : 2.000
Frame rate mode : Constant
Frame rate : 23.976 (24000/1001) fps
Color space : YUV
Chroma subsampling : 4:2:0
Bit depth : 8 bits
Scan type : Progressive
Bits/(Pixel*Frame) : 0.259
Stream size : 4.04 GiB (94%)
Writing library : x264 core 146 r2538 121396c
Encoding settings : cabac=1 / ref=5 / deblock=1:-1:-1 / analyse=0x3:0x133 / me=umh / subme=7 / psy=1 / psy_rd=1.00:0.20 / mixed_ref=1 / me_range=16 / chroma_me=1 / trellis=2 / 8x8dct=1 / cqm=0 / deadzone=21,11 / fast_pskip=0 / chroma_qp_offset=-3 / threads=3 / lookahead_threads=1 / sliced_threads=0 / nr=0 / decimate=0 / interlaced=0 / bluray_compat=0 / constrained_intra=0 / bframes=3 / b_pyramid=2 / b_adapt=2 / b_bias=0 / direct=3 / weightb=1 / open_gop=0 / weightp=2 / keyint=250 / keyint_min=23 / scenecut=40 / intra_refresh=0 / rc_lookahead=50 / rc=2pass / mbtree=1 / bitrate=5085 / ratetol=1.0 / qcomp=0.60 / qpmin=0 / qpmax=69 / qpstep=4 / cplxblur=20.0 / qblur=0.5 / ip_ratio=1.40 / aq=1:1.00
Default : Yes
Forced : No
Audio
ID : 2
Format : AC-3
Format/Info : Audio Coding 3
Mode extension : CM (complete main)
Format settings, Endianness : Big
Codec ID : A_AC3
Duration : 1h 56mn
Bit rate mode : Constant
Bit rate : 192 Kbps
Channel(s) : 2 channels
Channel positions : Front: L R
Sampling rate : 48.0 KHz
Frame rate : 31.250 fps (1536 spf)
Compression mode : Lossy
Stream size : 159 MiB (4%)
Default : Yes
Forced : No
Релиз от:
[Профиль] [ЛС]
Кто просматривает тему:

Форум Тема Автор Размер
Classical (Classical) VA - Спокойная и очень красивая музыка - 2014, MP3, 320 kbps Magnat 675 MB
Фильмы (HD DVD, Blu-ray и BDRemux) Александр и ужасный, кошмарный, нехороший, очень плохой день / Alexander (Мигель Артета) [2014 г., Комедия, семейный, Blu-Ray (1080p)] Magnat 27.54 GB
Фильмы (HD Rips | 720p, 1080p) Александр и ужасный, кошмарный, нехороший, очень плохой день / Alexander and the Terrible (2014) BDRip 720p | Лицензия sergej644 2.01 GB
Фильмы 2014 года Александр и ужасный, кошмарный, нехороший, очень плохой день / Alexander and the Terrible, Horrible, No Good, Very Bad Day (2014) HDRip | Чистый звук sergej644 1.37 GB
Фильмы 2014 года Александр и ужасный, кошмарный, нехороший, очень плохой день / Alexander and the Terrible, Horrible, No Good, Very Bad Day (2014) WEBRip | Чистый звук BOSS 1.37 GB
Фильмы 2014 года Александр и ужасный, кошмарный, нехороший, очень плохой день / Alexander and the Terrible, Horrible, No Good, Very Bad Day (Мигель Артета / Miguel Arteta) [2014, США, комедия, семейный, WEB-DLRip] Dub TorrentFilm 700 MB
Фильмы 2011 года Очень британский секс-скандал / Британский скандал вокруг секса / A Very British Sex Scandal (Патрик Римс / Patrick Reams) [2007, Великобритания, драма, криминал, DVDRip] VO + Sub Rus painkiller 720 MB
Фильмы (HD Rips | 720p, 1080p) Очень Мюрреевское Рождество / A Very Murray Christmas (2015) WEBRip 720p достали все 1.67 GB
Показать сообщения:    

Текущее время: Сегодня 19:37

Часовой пояс: GMT



Вы не можете начинать темы
Вы не можете отвечать на сообщения
Вы не можете редактировать свои сообщения
Вы не можете удалять свои сообщения
Вы не можете голосовать в опросах
Вы не можете прикреплять файлы к сообщениям
Вы не можете скачивать файлы