Очень старый человек с огромными крыльями (Олег Белоусов) [1990, СССР, рисованный, короткометражка, экранизация, DVDScreener]

 
Автор Сообщение

TorrentFilm ®

Пол:

Стаж: 2 года

Сообщений: 7741



Награды: Нет

Торрент-статистика

Создавать темы 03-Янв-2016 00:04

[Цитировать]

Очень старый человек с огромными крыльями
Страна: СССР, Беларусьфильм
Жанр: для взрослых, рисованный, короткометражка, экранизация
Год выпуска: 1990
Продолжительность: 00:14:00-Перевод: Не требуется
Cубтитры: нет
Оригинальная аудиодорожка: русский-Режиссер: Олег Белоусов-Описание:
Мультипликационный фильм по мотивам одноименной повести Габриэля Гарсиа Маркеса. Несколько дней идёт дождь, всюду сырость и зловоние в доме, ещё болезни одолевают. Всё вокруг сделалось серым и мрачным: перемешались море и облака, грязным стал пляж. Даже днём из-за дождя свет был тусклым. Возле дома, обнаружился человек, который упал и не двигался… он был старый, очень очень старый…
Качество видео: DVDScreener
Формат видео: AVI
Видео: 720x544 (1.32:1), 25 fps, XviD Final 1.0 (build 34) ~2161 kbps avg, 0.22 bit/pixel
Аудио: 48 kHz, MPEG Layer 3, 2 ch, ~128.00 kbps avg

MediaInfo

Format : AVI
Format/Info : Audio Video Interleave
File size : 239 MiB
Duration : 14mn 32s
Overall bit rate : 2 300 Kbps
Writing application : VirtualDubMod 1.5.4.1 (build 2178/release)
Writing library : VirtualDubMod build 2178/release
Video
ID : 0
Format : MPEG-4 Visual
Format profile : Advanced Simple@L5
Format settings, BVOP : 1
Format settings, QPel : No
Format settings, GMC : No warppoints
Format settings, Matrix : Custom
Codec ID : XVID
Codec ID/Hint : XviD
Duration : 14mn 32s
Bit rate : 2 162 Kbps
Width : 720 pixels
Height : 544 pixels
Display aspect ratio : 4:3
Frame rate : 25.000 fps
Color space : YUV
Chroma subsampling : 4:2:0
Bit depth : 8 bits
Scan type : Progressive
Compression mode : Lossy
Bits/(Pixel*Frame) : 0.221
Stream size : 225 MiB (94%)
Writing library : XviD 1.0.0 (UTC 2004-05-09)
Audio
ID : 1
Format : MPEG Audio
Format version : Version 1
Format profile : Layer 3
Mode : Joint stereo
Mode extension : MS Stereo
Codec ID : 55
Codec ID/Hint : MP3
Duration : 14mn 32s
Bit rate mode : Constant
Bit rate : 128 Kbps
Channel(s) : 2 channels
Sampling rate : 48.0 KHz
Compression mode : Lossy
Stream size : 13.3 MiB (6%)
Alignment : Aligned on interleaves
Interleave, duration : 40 ms (1.00 video frame)
Interleave, preload duration : 504 ms

Скриншот c названием фильма

Скриншоты

[Профиль] [ЛС]
Кто просматривает тему:

Форум Тема Автор Размер
Classical (Classical) VA - Спокойная и очень красивая музыка - 2014, MP3, 320 kbps Magnat 675 MB
Фильмы (HD DVD, Blu-ray и BDRemux) Александр и ужасный, кошмарный, нехороший, очень плохой день / Alexander (Мигель Артета) [2014 г., Комедия, семейный, Blu-Ray (1080p)] Magnat 27.54 GB
Фильмы (HD Rips | 720p, 1080p) Александр и ужасный, кошмарный, нехороший, очень плохой день / Alexander and the Terrible (2014) BDRip 720p | Лицензия sergej644 2.01 GB
Фильмы 2014 года Александр и ужасный, кошмарный, нехороший, очень плохой день / Alexander and the Terrible, Horrible, No Good, Very Bad Day (2014) HDRip | Чистый звук sergej644 1.37 GB
Фильмы 2014 года Александр и ужасный, кошмарный, нехороший, очень плохой день / Alexander and the Terrible, Horrible, No Good, Very Bad Day (2014) WEBRip | Чистый звук BOSS 1.37 GB
Фильмы 2014 года Александр и ужасный, кошмарный, нехороший, очень плохой день / Alexander and the Terrible, Horrible, No Good, Very Bad Day (Мигель Артета / Miguel Arteta) [2014, США, комедия, семейный, WEB-DLRip] Dub TorrentFilm 700 MB
Фильмы 2011 года Очень британский секс-скандал / Британский скандал вокруг секса / A Very British Sex Scandal (Патрик Римс / Patrick Reams) [2007, Великобритания, драма, криминал, DVDRip] VO + Sub Rus painkiller 720 MB
Фильмы (HD Rips | 720p, 1080p) Очень Мюрреевское Рождество / A Very Murray Christmas (2015) WEBRip 720p достали все 1.67 GB
Показать сообщения:    

Текущее время: Сегодня 14:58

Часовой пояс: GMT



Вы не можете начинать темы
Вы не можете отвечать на сообщения
Вы не можете редактировать свои сообщения
Вы не можете удалять свои сообщения
Вы не можете голосовать в опросах
Вы не можете прикреплять файлы к сообщениям
Вы не можете скачивать файлы