Очень плохие девчонки / Rough Night (2017) UHD BDRemux 2160p | 4K | HDR | Лицензия

 
Автор Сообщение

BOSS ®

Пол:

Стаж: 3 года 2 месяца

Сообщений: 8593

Откуда: ODESSA



Награды: 22 (Подробнее)

Top Keeper 3 (Количество: 1) Top Keeper 4 (Количество: 1) Mega Releaser 3 (Количество: 1)
Торрент-статистика

Создавать темы 06-Дек-2017 14:48

[Цитировать]

Информация о фильме
Название: Очень плохие девчонки
Оригинальное название: Rough Night
Год выхода: 2017
Жанр: Комедия, приключения
Режиссер: Люсия Аньелло
В ролях: Скарлетт Йоханссон, Джиллиан Белл, Зои Кравиц, Илана Глейзер, Кейт МакКиннон, Пол В. Даунс, Райан Купер, Тай Буррелл, Деми Мур, Энрике Мурсиано
О фильме:
Что может омрачить развеселый и безбашенный девичник в Майами? Наверное, только нелепая смерть стриптизера. Теперь подружкам предстоит выпутаться из дурацкой истории и как-то замести следы, пока они не попали в руки к копам.

Страна: США
Студия: Paulilu Productions Sony, Pictures Entertainment
Продолжительность: 01:40:50
Перевод: Дублированный | Лицензия
Файл
Качество: BDRemux 2160p
Видео: MPEG-H HEVC HDR Video, 3840x2160, 53.6 Mbit/s, 23.976 fps
Звук:
Аудио #01: 48 kHz, AC3, 5.1, 640 Kbps | Дублированный | RUS |
Аудио #02: 48 kHz, TrueHD, 7.1, 4336 Kbps | Оригинал | ENG |
Аудио #03: 48 kHz, AC3, 5.1, 640 Kbps | Оригинал | ENG |
Субтитры: Русские (forced, full), английские

MI

General
Unique ID : 206556279897456754635788031819632631876 (0x9B654ADF061CEA2CB98006C121346044)
Complete name : G:Rough.Night.2017.BDREMUX.2160p.4K.UltraHD.HEVC.HDR.ExKinoRay.mkv
Format : Matroska
Format version : Version 4 / Version 2
File size : 41.8 GiB
Duration : 1 h 40 min
Overall bit rate mode : Variable
Overall bit rate : 59.3 Mb/s
Movie name : Rough Night 2017 from ExKinoRay
Encoded date : UTC 2017-12-06 06:41:01
Writing application : mkvmerge v17.0.0 ('Be Ur Friend') 64-bit
Writing library : libebml v1.3.5 + libmatroska v1.4.8
Video
ID : 1
Format : HEVC
Format/Info : High Efficiency Video Coding
Format profile : Main 10@L5.1@High
Codec ID : V_MPEGH/ISO/HEVC
Duration : 1 h 40 min
Bit rate : 53.6 Mb/s
Width : 3 840 pixels
Height : 2 160 pixels
Display aspect ratio : 16:9
Frame rate mode : Constant
Frame rate : 23.976 (24000/1001) FPS
Color space : YUV
Chroma subsampling : 4:2:0 (Type 2)
Bit depth : 10 bits
Bits/(Pixel*Frame) : 0.270
Stream size : 37.8 GiB (90%)
Language : English
Default : Yes
Forced : No
Color range : Limited
Color primaries : BT.2020
Transfer characteristics : PQ
Matrix coefficients : BT.2020 non-constant
Mastering display color pri : R: x=0.680000 y=0.320000, G: x=0.265000 y=0.690000, B: x=0.150000 y=0.060000, White point: x=0.312700 y=0.329000
Mastering display luminance : min: 0.0050 cd/m2, max: 4000.0000 cd/m2
Maximum Content Light Level : 10000 cd/m2
Maximum Frame-Average Light : 481 cd/m2
Audio #1
ID : 2
Format : AC-3
Format/Info : Audio Coding 3
Format settings, Endianness : Big
Codec ID : A_AC3
Duration : 1 h 40 min
Bit rate mode : Constant
Bit rate : 640 kb/s
Channel(s) : 6 channels
Channel positions : Front: L C R, Side: L R, LFE
Sampling rate : 48.0 kHz
Frame rate : 31.250 FPS (1536 SPF)
Bit depth : 16 bits
Compression mode : Lossy
Stream size : 462 MiB (1%)
Title : Dub [License]
Language : Russian
Service kind : Complete Main
Default : Yes
Forced : No
Audio #2
ID : 3
Format : TrueHD
Format profile : TrueHD+Atmos / TrueHD
Codec ID : A_TRUEHD
Duration : 1 h 40 min
Bit rate mode : Variable
Bit rate : 4 336 kb/s
Maximum bit rate : 7 836 kb/s
Channel(s) : Object Based / 8 channels
Channel positions : Object Based / Front: L C R, Side: L R, Back: L R, LFE
Sampling rate : / 48.0 kHz
Frame rate : 1 200.000 FPS (40 SPF)
Compression mode : Lossless
Stream size : 3.05 GiB (7%)
Title : Original
Language : English
Default : No
Forced : No
Audio #3
ID : 4
Format : AC-3
Format/Info : Audio Coding 3
Format settings, Endianness : Big
Codec ID : A_AC3
Duration : 1 h 40 min
Bit rate mode : Constant
Bit rate : 640 kb/s
Channel(s) : 6 channels
Channel positions : Front: L C R, Side: L R, LFE
Sampling rate : 48.0 kHz
Frame rate : 31.250 FPS (1536 SPF)
Bit depth : 16 bits
Compression mode : Lossy
Stream size : 462 MiB (1%)
Title : Dop.
Language : English
Service kind : Complete Main
Default : No
Forced : No
Text #1
ID : 5
Format : UTF-8
Codec ID : S_TEXT/UTF8
Codec ID/Info : UTF-8 Plain Text
Duration : 1 h 29 min
Bit rate : 0 b/s
Count of elements : 5
Stream size : 203 Bytes (0%)
Title : Forced
Language : Russian
Default : Yes
Forced : No
Text #2
ID : 6
Format : UTF-8
Codec ID : S_TEXT/UTF8
Codec ID/Info : UTF-8 Plain Text
Duration : 1 h 39 min
Bit rate : 129 b/s
Count of elements : 2013
Stream size : 93.9 KiB (0%)
Title : Full
Language : Russian
Default : No
Forced : No
Text #3
ID : 7
Format : UTF-8
Codec ID : S_TEXT/UTF8
Codec ID/Info : UTF-8 Plain Text
Duration : 1 h 39 min
Bit rate : 100 b/s
Count of elements : 2236
Stream size : 73.1 KiB (0%)
Title : Full
Language : English
Default : No
Forced : No
Text #4
ID : 8
Format : UTF-8
Codec ID : S_TEXT/UTF8
Codec ID/Info : UTF-8 Plain Text
Duration : 1 h 40 min
Bit rate : 110 b/s
Count of elements : 2397
Stream size : 80.6 KiB (0%)
Title : SDH
Language : English
Default : No
Forced : No
Menu
00:00:00.000 : en:00:00:00.000
00:04:44.326 : en:00:04:44.326
00:08:05.276 : en:00:08:05.276
00:15:19.210 : en:00:15:19.210
00:25:46.295 : en:00:25:46.295
00:34:27.023 : en:00:34:27.023
00:39:51.264 : en:00:39:51.264
00:43:11.088 : en:00:43:11.088
00:46:26.617 : en:00:46:26.617
00:49:09.530 : en:00:49:09.530
00:53:44.179 : en:00:53:44.179
00:59:37.657 : en:00:59:37.657
01:02:53.937 : en:01:02:53.937
01:11:56.646 : en:01:11:56.646
01:22:55.679 : en:01:22:55.679
01:30:58.328 : en:01:30:58.328
[Профиль] [ЛС]
Кто просматривает тему:

Форум Тема Автор Размер
Фильмы (HD DVD, Blu-ray и BDRemux) Александр и ужасный, кошмарный, нехороший, очень плохой день / Alexander (Мигель Артета) [2014 г., Комедия, семейный, Blu-Ray (1080p)] Magnat 27.54 GB
Фильмы (HD Rips | 720p, 1080p) Александр и ужасный, кошмарный, нехороший, очень плохой день / Alexander and the Terrible (2014) BDRip 720p | Лицензия sergej644 2.01 GB
Фильмы 2014 года Александр и ужасный, кошмарный, нехороший, очень плохой день / Alexander and the Terrible, Horrible, No Good, Very Bad Day (2014) HDRip | Чистый звук sergej644 1.37 GB
Фильмы 2014 года Александр и ужасный, кошмарный, нехороший, очень плохой день / Alexander and the Terrible, Horrible, No Good, Very Bad Day (2014) WEBRip | Чистый звук BOSS 1.37 GB
Фильмы 2014 года Александр и ужасный, кошмарный, нехороший, очень плохой день / Alexander and the Terrible, Horrible, No Good, Very Bad Day (Мигель Артета / Miguel Arteta) [2014, США, комедия, семейный, WEB-DLRip] Dub TorrentFilm 700 MB
Фильмы 2013 года Мы с ней очень любим ложь / The Liar and His Lover (2013) HDRip | L2 BOSS 2.16 GB
Фильмы 2011 года Очень британский секс-скандал / Британский скандал вокруг секса / A Very British Sex Scandal (Патрик Римс / Patrick Reams) [2007, Великобритания, драма, криминал, DVDRip] VO + Sub Rus painkiller 720 MB
Фильмы (HD Rips | 720p, 1080p) Очень Мюрреевское Рождество / A Very Murray Christmas (2015) WEBRip 720p достали все 1.67 GB
Показать сообщения:    

Текущее время: Сегодня 14:46

Часовой пояс: GMT



Вы не можете начинать темы
Вы не можете отвечать на сообщения
Вы не можете редактировать свои сообщения
Вы не можете удалять свои сообщения
Вы не можете голосовать в опросах
Вы не можете прикреплять файлы к сообщениям
Вы не можете скачивать файлы