Очень плохие девчонки / Rough Night (2017) BDRip 720p | Лицензия

 
Автор Сообщение

BOSS ®

Пол:

Стаж: 3 года 1 месяц

Сообщений: 8232

Откуда: ODESSA



Награды: 22 (Подробнее)

Mega Seeder 2 (Количество: 1) За внесенный вклад в развитие сайта (Количество: 1) Mega Releaser 4 (Количество: 1)
Торрент-статистика

Создавать темы 29-Сен-2017 04:35

[Цитировать]

«Подруга подкинула проблем»
Информация о фильме
Название: Очень плохие девчонки
Оригинальное название: Rough Night
Год выхода: 2017
Жанр: Комедия
Режиссер: Люсия Аньелло
В ролях: Скарлетт Йоханссон, Джиллиан Белл, Зои Кравиц, Илана Глейзер, Кейт МакКиннон, Пол В. Даунс, Райан Купер, Тай Буррелл, Деми Мур, Энрике Мурсиано
О фильме:
Что может омрачить развеселый и безбашенный девичник в Майами? Наверное, только нелепая смерть стриптизера. Теперь подружкам предстоит выпутаться из дурацкой истории и как-то замести следы, пока они не попали в руки к копам.

Страна: США
Студия: Paulilu Productions, Sony Pictures Entertainment (SPE)
Продолжительность: 01:40:50
Перевод: Профессиональный (полное дублирование) | Blu-ray CEE
Файл
Качество: BDRip 720p
Формат: MKV
Кодек: MPEG-4 AVC
Видео: 1280x536 (2,40:1), 23.976 fps, MPEG-4 AVC ~ 6151 kbps avg, 0.374 bit/pixel
Аудио: АС3, 48,0 kHz, 6 ch, ~640.00 kbps avg | русский | Blu-ray CEE
Аудио: DTS, 48,0 kHz, 6 ch, ~1509.00 kbps avg | английский | Оригинал
Субтитры: Русские, Английские

Инфо-файл

Общее
Уникальный идентификатор : 174769028180981904290110214682933274956 (0x837B4A5C6839F7B7A7583ADF6A8D294C)
Полное имя : Rough.Night.2017.720p.BluRay.x264.Rus.Eng.mkv
Формат : Matroska
Версия формата : Version 4 / Version 2
Размер файла : 5,85 Гбайт
Продолжительность : 1 ч. 40 м.
Общий поток : 8303 Кбит/сек
Название фильма : Очень плохие девчонки (2017)
Дата кодирования : UTC 2017-09-29 02:19:18
Программа кодирования : mkvmerge v9.7.1 ('Pandemonium') 64bit
Библиотека кодирования : libebml v1.3.4 + libmatroska v1.4.5
Видео
Идентификатор : 1
Формат : AVC
Формат/Информация : Advanced Video Codec
Профиль формата : High@L4.1
Параметр CABAC формата : Да
Параметр ReFrames формата : 12 кадров
Идентификатор кодека : V_MPEG4/ISO/AVC
Продолжительность : 1 ч. 40 м.
Битрейт : 6151 Кбит/сек
Ширина : 1280 пикселей
Высота : 536 пикселей
Соотношение сторон : 2,40:1
Режим частоты кадров : Постоянный
Частота кадров : 23,976 (24000/1001) кадра/сек
Цветовое пространство : YUV
Субдискретизация насыщенности : 4:2:0
Битовая глубина : 8 бит
Тип развёртки : Прогрессивная
Бит/(Пиксели*Кадры) : 0.374
Размер потока : 4,33 Гбайт (74%)
Заголовок : Rough.Night.2017.720p.BluRay.x264.Rus.Eng
Библиотека кодирования : x264 core 152 r2851 ba24899
Настройки программы : cabac=1 / ref=12 / deblock=1:-3:-3 / analyse=0x3:0x113 / me=umh / subme=10 / psy=1 / psy_rd=1.04:0.00 / mixed_ref=1 / me_range=32 / chroma_me=1 / trellis=2 / 8x8dct=1 / cqm=1 / deadzone=21,11 / fast_pskip=0 / chroma_qp_offset=-1 / threads=12 / lookahead_threads=2 / sliced_threads=0 / nr=0 / decimate=1 / interlaced=0 / bluray_compat=0 / constrained_intra=0 / bframes=8 / b_pyramid=2 / b_adapt=2 / b_bias=0 / direct=3 / weightb=1 / open_gop=0 / weightp=2 / keyint=230 / keyint_min=23 / scenecut=40 / intra_refresh=0 / rc_lookahead=40 / rc=crf / mbtree=0 / crf=12.9 / qcomp=0.62 / qpmin=10 / qpmax=69 / qpstep=4 / vbv_maxrate=62500 / vbv_bufsize=78125 / crf_max=0.0 / nal_hrd=none / filler=0 / ip_ratio=1.30 / pb_ratio=1.20 / aq=1:0.75
Язык : English
Default : Да
Forced : Нет
Аудио #1
Идентификатор : 2
Формат : AC-3
Формат/Информация : Audio Coding 3
Параметр Endianness формата : Big
Идентификатор кодека : A_AC3
Продолжительность : 1 ч. 40 м.
Вид битрейта : Постоянный
Битрейт : 640 Кбит/сек
Каналы : 6 каналов
Расположение каналов : Front: L C R, Side: L R, LFE
Частота : 48,0 КГц
Частота кадров : 31,250 кадров/сек (1536 spf)
Битовая глубина : 16 бит
Метод сжатия : С потерями
Размер потока : 462 Мбайт (8%)
Заголовок : Blu-ray CEE
Язык : Russian
Default : Да
Forced : Нет
Аудио #2
Идентификатор : 3
Формат : DTS
Формат/Информация : Digital Theater Systems
Режим : 16
Параметр Endianness формата : Big
Идентификатор кодека : A_DTS
Продолжительность : 1 ч. 40 м.
Вид битрейта : Постоянный
Битрейт : 1509 Кбит/сек
Каналы : 6 каналов
Расположение каналов : Front: L C R, Side: L R, LFE
Частота : 48,0 КГц
Частота кадров : 93,750 кадра/сек (512 spf)
Битовая глубина : 16 бит
Метод сжатия : С потерями
Задержка видео : 11 мс.
Размер потока : 1,06 Гбайт (18%)
Язык : English
Default : Нет
Forced : Нет
Текст #1
Идентификатор : 4
Формат : UTF-8
Идентификатор кодека : S_TEXT/UTF8
Идентификатор кодека/Информация : UTF-8 Plain Text
Продолжительность : 1 ч. 29 м.
Битрейт : 0 бит/сек
ElementCount : 5
Размер потока : 203 байт (0%)
Заголовок : Forced
Язык : Russian
Default : Да
Forced : Нет
Текст #2
Идентификатор : 5
Формат : UTF-8
Идентификатор кодека : S_TEXT/UTF8
Идентификатор кодека/Информация : UTF-8 Plain Text
Продолжительность : 1 ч. 39 м.
Битрейт : 129 бит/сек
ElementCount : 2013
Размер потока : 93,9 Кбайт (0%)
Заголовок : Full
Язык : Russian
Default : Нет
Forced : Нет
Текст #3
Идентификатор : 6
Формат : UTF-8
Идентификатор кодека : S_TEXT/UTF8
Идентификатор кодека/Информация : UTF-8 Plain Text
Продолжительность : 1 ч. 39 м.
Битрейт : 100 бит/сек
ElementCount : 2236
Размер потока : 73,1 Кбайт (0%)
Заголовок : Full
Язык : English
Default : Нет
Forced : Нет
Текст #4
Идентификатор : 7
Формат : UTF-8
Идентификатор кодека : S_TEXT/UTF8
Идентификатор кодека/Информация : UTF-8 Plain Text
Продолжительность : 1 ч. 40 м.
Битрейт : 110 бит/сек
ElementCount : 2397
Размер потока : 80,6 Кбайт (0%)
Заголовок : SDH
Язык : English
Default : Нет
Forced : Нет
Меню
00:00:00.000 : en:00:00:00.000
00:04:44.326 : en:00:04:44.326
00:08:05.276 : en:00:08:05.276
00:15:19.210 : en:00:15:19.210
00:25:46.295 : en:00:25:46.295
00:34:27.023 : en:00:34:27.023
00:39:51.264 : en:00:39:51.264
00:43:11.088 : en:00:43:11.088
00:46:26.617 : en:00:46:26.617
00:49:09.530 : en:00:49:09.530
00:53:44.179 : en:00:53:44.179
00:59:37.657 : en:00:59:37.657
01:02:53.937 : en:01:02:53.937
01:11:56.646 : en:01:11:56.646
01:22:55.679 : en:01:22:55.679
01:30:58.328 : en:01:30:58.328

Скриншоты

[Профиль] [ЛС]
Кто просматривает тему:

Форум Тема Автор Размер
Фильмы (HD DVD, Blu-ray и BDRemux) Александр и ужасный, кошмарный, нехороший, очень плохой день / Alexander (Мигель Артета) [2014 г., Комедия, семейный, Blu-Ray (1080p)] Magnat 27.54 GB
Фильмы (HD Rips | 720p, 1080p) Александр и ужасный, кошмарный, нехороший, очень плохой день / Alexander and the Terrible (2014) BDRip 720p | Лицензия sergej644 2.01 GB
Фильмы 2014 года Александр и ужасный, кошмарный, нехороший, очень плохой день / Alexander and the Terrible, Horrible, No Good, Very Bad Day (2014) HDRip | Чистый звук sergej644 1.37 GB
Фильмы 2014 года Александр и ужасный, кошмарный, нехороший, очень плохой день / Alexander and the Terrible, Horrible, No Good, Very Bad Day (2014) WEBRip | Чистый звук BOSS 1.37 GB
Фильмы 2014 года Александр и ужасный, кошмарный, нехороший, очень плохой день / Alexander and the Terrible, Horrible, No Good, Very Bad Day (Мигель Артета / Miguel Arteta) [2014, США, комедия, семейный, WEB-DLRip] Dub TorrentFilm 700 MB
Фильмы 2013 года Мы с ней очень любим ложь / The Liar and His Lover (2013) HDRip | L2 BOSS 2.16 GB
Фильмы 2011 года Очень британский секс-скандал / Британский скандал вокруг секса / A Very British Sex Scandal (Патрик Римс / Patrick Reams) [2007, Великобритания, драма, криминал, DVDRip] VO + Sub Rus painkiller 720 MB
Фильмы (HD Rips | 720p, 1080p) Очень Мюрреевское Рождество / A Very Murray Christmas (2015) WEBRip 720p достали все 1.67 GB
Показать сообщения:    

Текущее время: Сегодня 05:34

Часовой пояс: GMT



Вы не можете начинать темы
Вы не можете отвечать на сообщения
Вы не можете редактировать свои сообщения
Вы не можете удалять свои сообщения
Вы не можете голосовать в опросах
Вы не можете прикреплять файлы к сообщениям
Вы не можете скачивать файлы