Очень плохие девчонки / Rough Night (2017) BDRemux 1080p | iTunes

 
Автор Сообщение

BOSS ®

Пол:

Стаж: 3 года 1 месяц

Сообщений: 8232

Откуда: ODESSA



Награды: 22 (Подробнее)

Top Keeper 2 (Количество: 1) Top Releaser 2 (Количество: 1) Mega Seeder 2 (Количество: 1)
Торрент-статистика

Создавать темы 24-Авг-2017 07:04

[Цитировать]

Информация о фильме
Название: Очень плохие девчонки
Оригинальное название: Rough Night
Год выхода: 2017
Жанр: Комедия, приключения
Режиссер: Люсия Аньелло
В ролях: Скарлетт Йоханссон, Джиллиан Белл, Зои Кравиц, Илана Глейзер, Кейт МакКиннон, Пол В. Даунс, Райан Купер, Тай Буррелл, Деми Мур, Энрике Мурсиано
О фильме:
Что может омрачить развеселый и безбашенный девичник в Майами? Наверное, только нелепая смерть стриптизера. Теперь подружкам предстоит выпутаться из дурацкой истории и как-то замести следы, пока они не попали в руки к копам.

Страна: США
Студия: Paulilu Productions Sony, Pictures Entertainment
Продолжительность: 01:40:50
Перевод: Дублированный | iTunes
Файл
Качество: Blu-Ray Remux 1080p
Формат: BDAV
Источник: Rough.Night.2017.COMPLETE.BLURAY-BAKED
Видео: 1920x1080 at 23.976 fps, MPEG-4 AVC, ~24831 kbps avg
Аудио: Russian: 48 kHz, AC3, 3/2 (L,C,R,l,r) + LFE ch, ~384.00 kbps avg
Аудио: Ukrainian: 48 kHz, AC3, 2/0 (L,R) ch, ~192.00 kbps avg
Аудио: English: 48 kHz/16-bit, DTS-HD MA 5.1, ~1964.00 kbps avg
Аудио: English: 48 kHz, AC3, 3/2 (L,C,R,l,r) + LFE ch, ~384.00 kbps avg
Субтитры: Русские (форс, полные), английские (полные)

M/I

Общее
Полное имя : E:ЗагрузкиRough.Night.2017.BD.Remux
Формат : Blu-ray movie
Продолжительность : 1 ч. 40 м.
Режим общего битрейта : Переменный
Общий поток : 1 бит/сек
Видео
Идентификатор : 4113 (0x1011)
Идентификатор меню : 1 (0x1)
Формат : AVC
Формат/Информация : Advanced Video Codec
Профиль формата : High@L4.1
Параметр CABAC формата : Да
Параметр RefFrames формата : 2 кадра
Параметр GOP формата : M=1, N=10
Идентификатор кодека : 27
Продолжительность : 1 ч. 40 м.
Вид битрейта : Переменный
Ширина : 1920 пикселей
Высота : 1080 пикселей
Соотношение сторон : 16:9
Частота кадров : 23,976 (24000/1001) кадра/сек
Цветовое пространство : YUV
Субдискретизация насыщенности : 4:2:0
Битовая глубина : 8 бит
Тип развёртки : Прогрессивная
format_identifier : HDMV
Оригинал : 00000.m2ts / 00000.m2ts
Аудио #1
Идентификатор : 4352 (0x1100)
Идентификатор меню : 1 (0x1)
Формат : AC-3
Формат/Информация : Audio Coding 3
Параметр Endianness формата : Big
Идентификатор кодека : 129
Продолжительность : 1 ч. 40 м.
Вид битрейта : Постоянный
Битрейт : 384 Кбит/сек
Каналы : 6 каналов
Расположение каналов : Front: L C R, Side: L R, LFE
Частота : 48,0 КГц
Частота кадров : 31,250 кадров/сек (1536 SPF)
Битовая глубина : 16 бит
Метод сжатия : С потерями
Размер потока : 277 Мбайт
Язык : Russian
ServiceKind/Str.ing : Complete Main
bsid : 8
dialnorm : -31
dialnorm : -31 dB
acmod : 7
lfeon : 1
dialnorm_Average : -24
dialnorm_Average : -24 dB
dialnorm_Minimum : -31
dialnorm_Minimum : -31 dB
dialnorm_Maximum : -24
dialnorm_Maximum : -24 dB
dialnorm_Count : 854
compr_Average : 4.36
compr_Average : 4.36 dB
compr_Minimum : 0.53
compr_Minimum : 0.53 dB
compr_Maximum : 6.55
compr_Maximum : 6.55 dB
compr_Count : 793
dynrng_Average : 4.05
dynrng_Average : 4.05 dB
dynrng_Minimum : 0.00
dynrng_Minimum : 0.00 dB
dynrng_Maximum : 6.02
dynrng_Maximum : 6.02 dB
dynrng_Count : 854
format_identifier : AC-3
Оригинал : 00000.m2ts / 00000.m2ts
Аудио #2
Идентификатор : 4353 (0x1101)
Идентификатор меню : 1 (0x1)
Формат : AC-3
Формат/Информация : Audio Coding 3
Параметр Endianness формата : Big
Идентификатор кодека : 129
Продолжительность : 1 ч. 40 м.
Вид битрейта : Постоянный
Битрейт : 192 Кбит/сек
Каналы : 2 канала
Расположение каналов : Front: L R
Частота : 48,0 КГц
Частота кадров : 31,250 кадров/сек (1536 SPF)
Битовая глубина : 16 бит
Метод сжатия : С потерями
Размер потока : 138 Мбайт
Язык : Ukrainian
ServiceKind/Str.ing : Complete Main
bsid : 6
dialnorm : -31
dialnorm : -31 dB
compr : -0.28
compr : -0.28 dB
dsurmod : 0
acmod : 2
lfeon : 0
dialnorm_Average : -31
dialnorm_Average : -31 dB
dialnorm_Minimum : -31
dialnorm_Minimum : -31 dB
dialnorm_Maximum : -31
dialnorm_Maximum : -31 dB
dialnorm_Count : 853
compr_Average : 4.04
compr_Average : 4.04 dB
compr_Minimum : -1.16
compr_Minimum : -1.16 dB
compr_Maximum : 6.02
compr_Maximum : 6.02 dB
compr_Count : 812
format_identifier : AC-3
Оригинал : 00000.m2ts / 00000.m2ts
Аудио #3
Идентификатор : 4354 (0x1102)
Идентификатор меню : 1 (0x1)
Формат : DTS
Формат/Информация : Digital Theater Systems
Профиль формата : MA / Core
Режим : 16
Параметр Endianness формата : Big
Режим смешивания : Stream extension
Идентификатор кодека : 134
Продолжительность : 1 ч. 40 м.
Вид битрейта : Переменный / Постоянный
Битрейт : Неизвестно / 1509 Кбит/сек
Каналы : 6 каналов
Расположение каналов : Front: L C R, Side: L R, LFE
Частота : 48,0 КГц
Частота кадров : 93,750 кадра/сек (512 SPF)
Битовая глубина : 16 бит
Метод сжатия : Без потерь / Lossy
Язык : English
Оригинал : 00000.m2ts / 00000.m2ts
Аудио #4
Идентификатор : 4355 (0x1103)
Идентификатор меню : 1 (0x1)
Формат : AC-3
Формат/Информация : Audio Coding 3
Параметр Endianness формата : Big
Идентификатор кодека : 129
Продолжительность : 1 ч. 40 м.
Вид битрейта : Постоянный
Битрейт : 384 Кбит/сек
Каналы : 6 каналов
Расположение каналов : Front: L C R, Side: L R, LFE
Частота : 48,0 КГц
Частота кадров : 31,250 кадров/сек (1536 SPF)
Битовая глубина : 16 бит
Метод сжатия : С потерями
Задержка видео : -7 мс.
Размер потока : 277 Мбайт
Язык : English
ServiceKind/Str.ing : Complete Main
bsid : 8
dialnorm : -31
dialnorm : -31 dB
compr : 5.46
compr : 5.46 dB
dynrng : 5.46
dynrng : 5.46 dB
acmod : 7
lfeon : 1
dialnorm_Average : -31
dialnorm_Average : -31 dB
dialnorm_Minimum : -31
dialnorm_Minimum : -31 dB
dialnorm_Maximum : -31
dialnorm_Maximum : -31 dB
dialnorm_Count : 854
compr_Average : 0.84
compr_Average : 0.84 dB
compr_Minimum : -4.53
compr_Minimum : -4.53 dB
compr_Maximum : 6.02
compr_Maximum : 6.02 dB
compr_Count : 828
dynrng_Average : 0.91
dynrng_Average : 0.91 dB
dynrng_Minimum : -4.30
dynrng_Minimum : -4.30 dB
dynrng_Maximum : 5.88
dynrng_Maximum : 5.88 dB
dynrng_Count : 846
format_identifier : AC-3
Оригинал : 00000.m2ts / 00000.m2ts
Текст #1
Идентификатор : 4608 (0x1200)
Идентификатор меню : 1 (0x1)
Формат : PGS
Идентификатор кодека : 144
Продолжительность : 1 ч. 40 м.
Язык : Russian
Оригинал : 00000.m2ts / 00000.m2ts
Текст #2
Идентификатор : 4609 (0x1201)
Идентификатор меню : 1 (0x1)
Формат : PGS
Идентификатор кодека : 144
Продолжительность : 1 ч. 40 м.
Язык : Russian
Оригинал : 00000.m2ts / 00000.m2ts
Текст #3
Идентификатор : 4610 (0x1202)
Идентификатор меню : 1 (0x1)
Формат : PGS
Идентификатор кодека : 144
Продолжительность : 1 ч. 40 м.
Язык : Ukrainian
Оригинал : 00000.m2ts / 00000.m2ts
Текст #4
Идентификатор : 4611 (0x1203)
Идентификатор меню : 1 (0x1)
Формат : PGS
Идентификатор кодека : 144
Продолжительность : 1 ч. 40 м.
Язык : English
Оригинал : 00000.m2ts / 00000.m2ts
Текст #5
Идентификатор : 4612 (0x1204)
Идентификатор меню : 1 (0x1)
Формат : PGS
Идентификатор кодека : 144
Продолжительность : 1 ч. 40 м.
Язык : English
Оригинал : 00000.m2ts / 00000.m2ts
Меню
00:00:00.000 : Chapter 1
00:04:44.324 : Chapter 2
00:08:05.276 : Chapter 3
00:15:19.208 : Chapter 4
00:25:46.294 : Chapter 5
00:34:27.023 : Chapter 6
00:39:51.262 : Chapter 7
00:43:11.088 : Chapter 8
00:46:26.617 : Chapter 9
00:49:09.527 : Chapter 10
00:53:44.179 : Chapter 11
00:59:37.657 : Chapter 12
01:02:53.936 : Chapter 13
01:11:56.645 : Chapter 14
01:22:55.679 : Chapter 15
01:30:58.327 : Chapter 16

Скриншоты

[Профиль] [ЛС]
Кто просматривает тему:

Форум Тема Автор Размер
Фильмы (HD DVD, Blu-ray и BDRemux) Александр и ужасный, кошмарный, нехороший, очень плохой день / Alexander (Мигель Артета) [2014 г., Комедия, семейный, Blu-Ray (1080p)] Magnat 27.54 GB
Фильмы (HD Rips | 720p, 1080p) Александр и ужасный, кошмарный, нехороший, очень плохой день / Alexander and the Terrible (2014) BDRip 720p | Лицензия sergej644 2.01 GB
Фильмы 2014 года Александр и ужасный, кошмарный, нехороший, очень плохой день / Alexander and the Terrible, Horrible, No Good, Very Bad Day (2014) HDRip | Чистый звук sergej644 1.37 GB
Фильмы 2014 года Александр и ужасный, кошмарный, нехороший, очень плохой день / Alexander and the Terrible, Horrible, No Good, Very Bad Day (2014) WEBRip | Чистый звук BOSS 1.37 GB
Фильмы 2014 года Александр и ужасный, кошмарный, нехороший, очень плохой день / Alexander and the Terrible, Horrible, No Good, Very Bad Day (Мигель Артета / Miguel Arteta) [2014, США, комедия, семейный, WEB-DLRip] Dub TorrentFilm 700 MB
Фильмы 2013 года Мы с ней очень любим ложь / The Liar and His Lover (2013) HDRip | L2 BOSS 2.16 GB
Фильмы 2011 года Очень британский секс-скандал / Британский скандал вокруг секса / A Very British Sex Scandal (Патрик Римс / Patrick Reams) [2007, Великобритания, драма, криминал, DVDRip] VO + Sub Rus painkiller 720 MB
Фильмы (HD Rips | 720p, 1080p) Очень Мюрреевское Рождество / A Very Murray Christmas (2015) WEBRip 720p достали все 1.67 GB
Показать сообщения:    

Текущее время: Сегодня 05:32

Часовой пояс: GMT



Вы не можете начинать темы
Вы не можете отвечать на сообщения
Вы не можете редактировать свои сообщения
Вы не можете удалять свои сообщения
Вы не можете голосовать в опросах
Вы не можете прикреплять файлы к сообщениям
Вы не можете скачивать файлы