Очень плохие девчонки / Rough Night (2017) BDRip 720p | iTunes

 
Автор Сообщение

BOSS ®

Пол:

Стаж: 3 года 1 месяц

Сообщений: 8217

Откуда: ODESSA



Награды: 22 (Подробнее)

Top Seeder 3 (Количество: 1) Top Releaser 4 (Количество: 1) Mega Releaser 1 (Количество: 1)
Торрент-статистика

Создавать темы 24-Авг-2017 04:41

[Цитировать]

Информация о фильме
Название: Очень плохие девчонки
Оригинальное название: Rough Night
Год выхода: 2017
Жанр: Комедия
Режиссер: Люсия Аньелло
В ролях: Скарлетт Йоханссон, Джиллиан Белл, Зои Кравиц, Илана Глейзер, Кейт МакКиннон, Пол В. Даунс, Райан Купер, Тай Бурелл, Деми Мур, Энрике Мурсиано, Каран Сони
О фильме:
Что может омрачить развеселый и безбашенный девичник в Майами? Наверное, только нелепая смерть стриптизера. Теперь подружкам предстоит выпутаться из дурацкой истории и как-то замести следы, пока они не попали в руки к копам.

Страна: США
Студия: Paulilu Productions Sony, Pictures Entertainment
Продолжительность: 01:40:50
Перевод: Дублированный (iTunes)
Файл
Кодек: MPEG-4 AVC
Качество: BDRip 720p | iTunes
Видео: AVC/H.264, 1280x536, 6000 kbps
Звук:
Аудио 1: AC3, 6 ch, 384 kbps - Русский
Аудио 2: DTS, 6 ch, 1509 Kbps - Английский
Субтитры: Русские (форс, полные), английские (полные)
Семпл

Mediainfo

Общее
Уникальный идентификатор : 175014605442135865388177944062765722204 (0x83AA9641373865628F27B49B503A6A5C)
Полное имя : Rough Night.2017.BDRip.720p.mkv
Формат : Matroska
Версия формата : Version 2
Размер файла : 5,56 Гбайт
Продолжительность : 1 ч. 40 м.
Режим общего битрейта : Переменный
Общий поток : 7897 Кбит/сек
Название фильма : Rough Night.2017.BDRip.720p
Дата кодирования : UTC 2017-08-23 21:48:26
Программа кодирования : mkvmerge v4.0.0 ('The Stars were mine') сборка от Jun 6 2010 16:18:42
Библиотека кодирования : libebml v1.0.0 + libmatroska v1.0.0
Видео
Идентификатор : 1
Формат : AVC
Формат/Информация : Advanced Video Codec
Профиль формата : High@L4.1
Параметр CABAC формата : Да
Параметр RefFrames формата : 11 кадров
Идентификатор кодека : V_MPEG4/ISO/AVC
Продолжительность : 1 ч. 40 м.
Вид битрейта : Переменный
Битрейт : 6000 Кбит/сек
Максимальный битрейт : 62,5 Мбит/сек
Ширина : 1280 пикселей
Высота : 536 пикселей
Соотношение сторон : 2,40:1
Режим частоты кадров : Постоянный
Частота кадров : 23,976 (24000/1001) кадра/сек
Цветовое пространство : YUV
Субдискретизация насыщенности : 4:2:0
Битовая глубина : 8 бит
Тип развёртки : Прогрессивная
Бит/(Пиксели*Кадры) : 0.365
Размер потока : 4,12 Гбайт (74%)
Библиотека кодирования : x264 core 142 r2431+42 c69a006 tMod [8-bit@all X86_64]
Настройки программы : cabac=1 / ref=12 / deblock=1:-3:-3 / analyse=0x3:0x133 / me=umh / subme=11 / psy=1 / fade_compensate=0.00 / psy_rd=1.08:1.08 / mixed_ref=1 / me_range=48 / chroma_me=1 / trellis=2 / 8x8dct=1 / cqm=0 / deadzone=21,11 / fast_pskip=0 / chroma_qp_offset=-4 / threads=16 / lookahead_threads=2 / sliced_threads=0 / nr=0 / decimate=0 / interlaced=0 / bluray_compat=0 / constrained_intra=0 / fgo=0 / bframes=8 / b_pyramid=1 / b_adapt=2 / b_bias=0 / direct=3 / weightb=1 / open_gop=0 / weightp=2 / keyint=240 / keyint_min=23 / scenecut=40 / intra_refresh=0 / rc_lookahead=150 / rc=2pass / mbtree=0 / bitrate=6000 / ratetol=1.0 / qcomp=0.70 / qpmin=0:0:0 / qpmax=69:69:69 / qpstep=4 / cplxblur=20.0 / qblur=0.5 / vbv_maxrate=62500 / vbv_bufsize=78125 / nal_hrd=vbr / filler=0 / ip_ratio=1.30 / pb_ratio=1.20 / aq=2:0.80 / aq-sensitivity=10.00 / aq-factor=1.00:1.00:1.00 / aq2=0 / aq3=0
Язык : English
Default : Нет
Forced : Нет
Цветовой диапазон : Limited
Основные цвета : BT.709
Характеристики трансфера : BT.709
Коэффициенты матрицы : BT.709
Аудио #1
Идентификатор : 2
Формат : AC-3
Формат/Информация : Audio Coding 3
Параметр Endianness формата : Big
Идентификатор кодека : A_AC3
Продолжительность : 1 ч. 40 м.
Вид битрейта : Постоянный
Битрейт : 384 Кбит/сек
Каналы : 6 каналов
Расположение каналов : Front: L C R, Side: L R, LFE
Частота : 48,0 КГц
Частота кадров : 31,250 кадров/сек (1536 SPF)
Битовая глубина : 16 бит
Метод сжатия : С потерями
Размер потока : 277 Мбайт (5%)
Заголовок : DUB (iTunes)
Язык : Russian
ServiceKind : Complete Main
Default : Да
Forced : Нет
Аудио #2
Идентификатор : 3
Формат : DTS
Формат/Информация : Digital Theater Systems
Режим : 16
Параметр Endianness формата : Big
Идентификатор кодека : A_DTS
Продолжительность : 1 ч. 40 м.
Вид битрейта : Постоянный
Битрейт : 1509 Кбит/сек
Каналы : 6 каналов
Расположение каналов : Front: L C R, Side: L R, LFE
Частота : 48,0 КГц
Частота кадров : 93,750 кадра/сек (512 SPF)
Битовая глубина : 16 бит
Метод сжатия : С потерями
Задержка видео : 11 мс.
Размер потока : 1,06 Гбайт (19%)
Язык : English
Default : Нет
Forced : Нет
Текст #1
Идентификатор : 4
Формат : UTF-8
Идентификатор кодека : S_TEXT/UTF8
Идентификатор кодека/Информация : UTF-8 Plain Text
Заголовок : Forced
Язык : Russian
Default : Да
Forced : Нет
Текст #2
Идентификатор : 5
Формат : UTF-8
Идентификатор кодека : S_TEXT/UTF8
Идентификатор кодека/Информация : UTF-8 Plain Text
Заголовок : Full
Язык : Russian
Default : Нет
Forced : Нет
Текст #3
Идентификатор : 6
Формат : UTF-8
Идентификатор кодека : S_TEXT/UTF8
Идентификатор кодека/Информация : UTF-8 Plain Text
Заголовок : Full
Язык : English
Default : Нет
Forced : Нет
Меню
00:00:00.000 : en:00:00:00.000
00:04:44.326 : en:00:04:44.326
00:08:05.276 : en:00:08:05.276
00:15:19.210 : en:00:15:19.210
00:25:46.295 : en:00:25:46.295
00:34:27.023 : en:00:34:27.023
00:39:51.264 : en:00:39:51.264
00:43:11.088 : en:00:43:11.088
00:46:26.617 : en:00:46:26.617
00:49:09.530 : en:00:49:09.530
00:53:44.179 : en:00:53:44.179
00:59:37.657 : en:00:59:37.657
01:02:53.937 : en:01:02:53.937
01:11:56.646 : en:01:11:56.646
01:22:55.679 : en:01:22:55.679
01:30:58.328 : en:01:30:58.328

Скриншоты

[Профиль] [ЛС]
Кто просматривает тему:

Форум Тема Автор Размер
Фильмы (HD DVD, Blu-ray и BDRemux) Александр и ужасный, кошмарный, нехороший, очень плохой день / Alexander (Мигель Артета) [2014 г., Комедия, семейный, Blu-Ray (1080p)] Magnat 27.54 GB
Фильмы (HD Rips | 720p, 1080p) Александр и ужасный, кошмарный, нехороший, очень плохой день / Alexander and the Terrible (2014) BDRip 720p | Лицензия sergej644 2.01 GB
Фильмы 2014 года Александр и ужасный, кошмарный, нехороший, очень плохой день / Alexander and the Terrible, Horrible, No Good, Very Bad Day (2014) HDRip | Чистый звук sergej644 1.37 GB
Фильмы 2014 года Александр и ужасный, кошмарный, нехороший, очень плохой день / Alexander and the Terrible, Horrible, No Good, Very Bad Day (2014) WEBRip | Чистый звук BOSS 1.37 GB
Фильмы 2014 года Александр и ужасный, кошмарный, нехороший, очень плохой день / Alexander and the Terrible, Horrible, No Good, Very Bad Day (Мигель Артета / Miguel Arteta) [2014, США, комедия, семейный, WEB-DLRip] Dub TorrentFilm 700 MB
Фильмы 2013 года Мы с ней очень любим ложь / The Liar and His Lover (2013) HDRip | L2 BOSS 2.16 GB
Фильмы 2011 года Очень британский секс-скандал / Британский скандал вокруг секса / A Very British Sex Scandal (Патрик Римс / Patrick Reams) [2007, Великобритания, драма, криминал, DVDRip] VO + Sub Rus painkiller 720 MB
Фильмы (HD Rips | 720p, 1080p) Очень Мюрреевское Рождество / A Very Murray Christmas (2015) WEBRip 720p достали все 1.67 GB
Показать сообщения:    

Текущее время: Сегодня 07:49

Часовой пояс: GMT



Вы не можете начинать темы
Вы не можете отвечать на сообщения
Вы не можете редактировать свои сообщения
Вы не можете удалять свои сообщения
Вы не можете голосовать в опросах
Вы не можете прикреплять файлы к сообщениям
Вы не можете скачивать файлы