Очень британский секс-скандал / Британский скандал вокруг секса / A Very British Sex Scandal (Патрик Римс / Patrick Reams) [2007, Великобритания, драма, криминал, DVDRip] VO + Sub Rus

 
Автор Сообщение

painkiller ®

Стаж: 2 года 3 месяца

Сообщений: 582



Награды: Нет

Торрент-статистика

Создавать темы 14-Авг-2014 13:01

[Цитировать]

Очень британский секс-скандал / Британский скандал вокруг секса / A Very British Sex Scandal
Страна: Великобритания
Жанр: драма, криминал
Год выпуска: 2007
Продолжительность: 01:15:41
Перевод: Одноголосый закадровый
Cубтитры: русские (только для названий мест, где происходят события, имён персонажей и некоторых аннотаций)
Режиссер: Патрик Римс / Patrick Reams
В ролях: Николя Ле Прево, Харриет Исткотт, Сэм Юэн, Карл Дейвис, Мартин Хатсон, Роджер Барклай, Эрик Карте, Орландо Уэллс, Уильям Чабб...
Описание: Фильм рассказывает историю Питера Уальдблада, британского журналиста, писателя и драматурга, который стал одной из первых публичных персон в Великобритании, открыто заявившей о своей гомосексуальности. В марте 1954 года Питер бы приговорён к 18 месяцам тюрьмы за мужеложство. На суде он не отрицал своих сексуальных связей с мужчинами, а отбыв срок заключения, написал книгу, в которой открыто заявил о себе как о гее. Это привело к судебным слушаниям, которые сыграли немаловажную роль в том, что в 1967 году гомосексуальность в Великобритании была декриминализована.
Качество видео: DVDRip (взят из сети)
Формат видео: AVI
Видео: XVID, 624х352, 16:9, 25.000 fps, 1 161 Kbps
Аудио: MP3, 48.0 KHz, 160 Kbps, 2 channels
Формат субтитров: softsub (SRT)
Доп. информация о субтитрах: только для названий мест, где происходят события, имён персонажей и некоторых аннотаций

MediaInfo

General
Complete name : D:\ВИДЕО\На торрент\Радуга\A Very British Sex Scandal\A Very British Sex Scandal 2007 rus.avi
Format : AVI
Format/Info : Audio Video Interleave
File size : 720 MiB
Duration : 1h 15mn
Overall bit rate : 1 330 Kbps
Video
ID : 0
Format : MPEG-4 Visual
Format profile : Advanced Simple@L5
Format settings, BVOP : No
Format settings, QPel : No
Format settings, GMC : No warppoints
Format settings, Matrix : Default (H.263)
Codec ID : XVID
Codec ID/Hint : XviD
Duration : 1h 15mn
Bit rate : 1 161 Kbps
Width : 624 pixels
Height : 352 pixels
Display aspect ratio : 16:9
Frame rate : 25.000 fps
Color space : YUV
Chroma subsampling : 4:2:0
Bit depth : 8 bits
Scan type : Progressive
Compression mode : Lossy
Bits/(Pixel*Frame) : 0.211
Stream size : 628 MiB (87%)
Writing library : XviD 62
Audio
ID : 1
Format : MPEG Audio
Format version : Version 1
Format profile : Layer 3
Codec ID : 55
Codec ID/Hint : MP3
Duration : 1h 15mn
Bit rate mode : Constant
Bit rate : 160 Kbps
Channel(s) : 2 channels
Sampling rate : 48.0 KHz
Compression mode : Lossy
Stream size : 86.6 MiB (12%)
Alignment : Split accross interleaves
Interleave, duration : 41 ms (1.02 video frame)

Скриншот c названием фильма

Скриншоты

[Профиль] [ЛС]

Создавать темы 06-Авг-2015 23:13 (спустя 11 месяцев 23 дня)

Топик был перенесен из форума Фильмы до 2014 года в форум Фильмы до 2012 года
sergej644
 
Кто просматривает тему:

Форум Тема Автор Размер
Classical (Classical) VA - Спокойная и очень красивая музыка - 2014, MP3, 320 kbps Magnat 675 MB
Фильмы (HD DVD, Blu-ray и BDRemux) Александр и ужасный, кошмарный, нехороший, очень плохой день / Alexander (Мигель Артета) [2014 г., Комедия, семейный, Blu-Ray (1080p)] Magnat 27.54 GB
Фильмы (HD Rips | 720p, 1080p) Александр и ужасный, кошмарный, нехороший, очень плохой день / Alexander and the Terrible (2014) BDRip 720p | Лицензия sergej644 2.01 GB
Фильмы 2014 года Александр и ужасный, кошмарный, нехороший, очень плохой день / Alexander and the Terrible, Horrible, No Good, Very Bad Day (2014) HDRip | Чистый звук sergej644 1.37 GB
Фильмы 2014 года Александр и ужасный, кошмарный, нехороший, очень плохой день / Alexander and the Terrible, Horrible, No Good, Very Bad Day (2014) WEBRip | Чистый звук BOSS 1.37 GB
Фильмы 2014 года Александр и ужасный, кошмарный, нехороший, очень плохой день / Alexander and the Terrible, Horrible, No Good, Very Bad Day (Мигель Артета / Miguel Arteta) [2014, США, комедия, семейный, WEB-DLRip] Dub TorrentFilm 700 MB
Фильмы (HD Rips | 720p, 1080p) Очень Мюрреевское Рождество / A Very Murray Christmas (2015) WEBRip 720p достали все 1.67 GB
Фильмы (HD DVD, Blu-ray и BDRemux) Очень плохие мамочки / Bad Moms (2016) 1080p BDRemux | iTunes достали все 24.4 GB
Показать сообщения:    

Текущее время: Сегодня 20:35

Часовой пояс: GMT



Вы не можете начинать темы
Вы не можете отвечать на сообщения
Вы не можете редактировать свои сообщения
Вы не можете удалять свои сообщения
Вы не можете голосовать в опросах
Вы не можете прикреплять файлы к сообщениям
Вы не можете скачивать файлы