Ох, уж этот отпуск / Ненавижу отпуск / Je hais les vacances (Стефан Клавье / Stéphane Clavier) [2007, Франция, Бельгия, Комедия, SATRip] MVO (Игмар)

 
Автор Сообщение

TorrentFilm ®

Пол:

Стаж: 1 год 11 месяцев

Сообщений: 7741



Награды: Нет

Торрент-статистика

Создавать темы 18-Мар-2015 00:02

[Цитировать]

Ох, уж этот отпуск / Ненавижу отпуск / Je hais les vacances
Страна: Франция, Бельгия
Жанр: Комедия
Год выпуска: 2007
Продолжительность: 01:25:00
Перевод: Профессиональный (многоголосый закадровый) Игмар
Cубтитры: нет
Оригинальная аудиодорожка: нет
Режиссер: Стефан Клавье / Stéphane Clavier
В ролях: Стефан Фрейсс, Кароль Ришер, Стефан Де Гродт, Поль Шарлен, Тома Дусе, Клеманс Лассала, Маэва Паскуали...
Описание: Каждый год ты мечтаешь о нем. Но для некоторых отпуск - хуже ада! Супруги Флоранс и Бруно с детьми мечтали провести прекрасный отпуск в небольшом отеле на острове Корсика. Но накануне приезда их отель взорвали местные повстанцы. Поэтому семейство вынуждено поселится у своего дальнего родственника, который ловко берет Флоранс и Бруно в оборот. Но на этом проблемы не заканчиваются: сходив с сыном в соседний кемпинг, отец семейства успешно напивается и следующим утром обнаруживает себя спящим в палатке молодой незнакомки...
Сэмпл: http://multi-up.com/1038499
Качество видео: SATRip
Формат видео: AVI
Видео: MPEG4, XviD, 720x432 (1.667), 25.000 fps, 2 104 Kbps (0.271 bit/pixel)
Аудио: AC-3, 48.0 KHz, 2 ch, 192 Kbps, CBR

MediaInfo

Общее
Полное имя : K:\Ох, уж этот отпуск.avi
Формат : AVI
Формат/Информация : Audio Video Interleave
Размер файла : 1,37 Гбайт
Продолжительность : 1 ч. 25 м.
Общий поток : 2306 Кбит/сек
Название фильма : Ох, уж этот отпуск / Ненавижу отпуск / Je hais les vacances (2007)
Программа кодирования : VirtualDubMod 1.5.10.2 (build 2540/release)
Библиотека кодирования : VirtualDubMod build 2540/release
Правообладатель : miha2154
Видео
Идентификатор : 0
Формат : MPEG-4 Visual
Профиль формата : Advanced Simple@L5
Параметр BVOP формата : 1
Параметр QPel формата : Нет
Параметр GMC формата : Без точки перехода
Параметр матрицы формата : Выборочная
Идентификатор кодека : XVID
Идентификатор кодека/Подсказка : XviD
Продолжительность : 1 ч. 25 м.
Битрейт : 2104 Кбит/сек
Ширина : 720 пикселей
Высота : 432 пикселя
Соотношение сторон : 1,667
Частота кадров : 25,000 кадров/сек
Цветовое пространство : YUV
Субдискретизация насыщенности : 4:2:0
Битовая глубина : 8 бит
Тип развёртки : Прогрессивная
Метод сжатия : С потерями
Бит/(Пиксели*Кадры) : 0.271
Размер потока : 1,25 Гбайт (91%)
Библиотека кодирования : XviD 65
Аудио
Идентификатор : 1
Формат : AC-3
Формат/Информация : Audio Coding 3
Расширение режима : CM (complete main)
Параметр Endianness формата : Big
Идентификатор кодека : 2000
Продолжительность : 1 ч. 25 м.
Вид битрейта : Постоянный
Битрейт : 192 Кбит/сек
Каналы : 2 канала
Расположение каналов : Front: L R
Частота : 48,0 КГц
Битовая глубина : 16 бит
Метод сжатия : С потерями
Размер потока : 117 Мбайт (8%)
Выравнивание : Разделение по промежуткам
Продолжительность промежутка : 40 мс. (1,00 видеокадр)
Время предзагрузки промежутка : 500 мс.
Заголовок : Профессиональный (многоголосый закадровый) Комедия

Скриншоты


[Профиль] [ЛС]

Создавать темы 06-Авг-2015 22:40 (спустя 4 месяца 19 дней)

Топик был перенесен из форума Фильмы до 2014 года в форум Фильмы до 2012 года
sergej644
 
Показать сообщения:    

Текущее время: Сегодня 04:55

Часовой пояс: GMT



Вы не можете начинать темы
Вы не можете отвечать на сообщения
Вы не можете редактировать свои сообщения
Вы не можете удалять свои сообщения
Вы не можете голосовать в опросах
Вы не можете прикреплять файлы к сообщениям
Вы не можете скачивать файлы