Ох, уж эти родители / Ненавижу родителей / Je hais les parents (Дидье Бивель / Didier Bivel) [2006, Бельгия, Франция, комедия, SATRip] MVO (Игмар)

 
Автор Сообщение

TorrentFilm ®

Пол:

Стаж: 2 года

Сообщений: 7741



Награды: Нет

Торрент-статистика

Создавать темы 20-Мар-2015 00:02

[Цитировать]

Ох, уж эти родители / Ненавижу родителей / Je hais les parents
Страна: Бельгия, Франция
Жанр: комедия
Год выпуска: 2006
Продолжительность: 01:25:09
Перевод: Профессиональный (многоголосый закадровый) Игмар
Cубтитры: нет
Оригинальная аудиодорожка: нет
Режиссер: Дидье Бивель / Didier Bivel
В ролях: Стефан Фрейсс, Кароль Ришер, Даниэль Прево, Даниель Лебрюн, Клеменс Лассала, Томас Дусе.
Описание: Супруги Бруно и Флоранс изо всех сил пытаются ощущать себя счастливыми, несмотря на наличие пятерых крайне непослушных детей. А тут еще к ним неожиданно приезжает мать Бруно, только что выписавшаяся из больницы с недолеченным переломом ноги, и отец Флоранс, который пребывает в депрессии из-за раставания с подружкой...
Сэмпл: http://multi-up.com/1038496
Качество видео: SATRip
Формат видео: AVI
Видео: MPEG4, XviD, 704x432 (1.630), 25.000 fps, 2 100 Kbps (0.276 bit/pixel)
Аудио: AC-3, 48.0 KHz, 2 ch, 192 Kbps, CBR

MediaInfo

Общее
Полное имя : K:\Ох, уж эти родители.avi
Формат : AVI
Формат/Информация : Audio Video Interleave
Размер файла : 1,37 Гбайт
Продолжительность : 1 ч. 25 м.
Общий поток : 2302 Кбит/сек
Название фильма : Ох, уж эти родители / Ненавижу родителей / Je hais les parents (2006)
Программа кодирования : VirtualDubMod 1.5.10.2 (build 2540/release)
Библиотека кодирования : VirtualDubMod build 2540/release
Правообладатель : miha2154
Видео
Идентификатор : 0
Формат : MPEG-4 Visual
Профиль формата : Advanced Simple@L5
Параметр BVOP формата : 1
Параметр QPel формата : Нет
Параметр GMC формата : Без точки перехода
Параметр матрицы формата : Выборочная
Идентификатор кодека : XVID
Идентификатор кодека/Подсказка : XviD
Продолжительность : 1 ч. 25 м.
Битрейт : 2100 Кбит/сек
Ширина : 704 пикселя
Высота : 432 пикселя
Соотношение сторон : 16:10
Частота кадров : 25,000 кадров/сек
Цветовое пространство : YUV
Субдискретизация насыщенности : 4:2:0
Битовая глубина : 8 бит
Тип развёртки : Прогрессивная
Метод сжатия : С потерями
Бит/(Пиксели*Кадры) : 0.276
Размер потока : 1,25 Гбайт (91%)
Библиотека кодирования : XviD 65
Аудио
Идентификатор : 1
Формат : AC-3
Формат/Информация : Audio Coding 3
Расширение режима : CM (complete main)
Параметр Endianness формата : Big
Идентификатор кодека : 2000
Продолжительность : 1 ч. 25 м.
Вид битрейта : Постоянный
Битрейт : 192 Кбит/сек
Каналы : 2 канала
Расположение каналов : Front: L R
Частота : 48,0 КГц
Битовая глубина : 16 бит
Метод сжатия : С потерями
Размер потока : 117 Мбайт (8%)
Выравнивание : Разделение по промежуткам
Продолжительность промежутка : 40 мс. (1,00 видеокадр)
Время предзагрузки промежутка : 500 мс.
Заголовок : Профессиональный (многоголосый закадровый) Комедия

Скриншоты


[Профиль] [ЛС]

Создавать темы 06-Авг-2015 22:40 (спустя 4 месяца 17 дней)

Топик был перенесен из форума Фильмы до 2014 года в форум Фильмы до 2012 года
sergej644
 
Показать сообщения:    

Текущее время: Сегодня 14:29

Часовой пояс: GMT



Вы не можете начинать темы
Вы не можете отвечать на сообщения
Вы не можете редактировать свои сообщения
Вы не можете удалять свои сообщения
Вы не можете голосовать в опросах
Вы не можете прикреплять файлы к сообщениям
Вы не можете скачивать файлы