Ох и Ах идут в поход (Юрий Прытков) [1977, Рисованный мультфильм, DVDRip]

 
Автор Сообщение

TorrentFilm ®

Пол:

Стаж: 2 года

Сообщений: 7741



Награды: Нет

Торрент-статистика

Создавать темы 29-Мар-2015 00:03

[Цитировать]

Ох и Ах идут в поход
Страна: СССР
Жанр: Рисованный мультфильм
Продолжительность: 00:09:40
Год выпуска: 1977
Русские субтитры: нет
Режиссёр: Юрий Прытков
Роли озвучивали: В.Невинный
Описание: Фильм с участием мультипликационных человечков - весельчака Аха и ворчуна Оха, воспитывающая оптимистическое отношение к жизни и такие качества, как бодрость духа, находчивость и смекалку.
Доп. информация:
Производство: «Союзмультфильм».
Автор сценария: Л.Зубкова
Художник-постановник: Т.Сазонова
Композитор: Е.Птичкин
Кинооператор: М.Друян
Звукооператор: Б.Фильчиков
Релиз группы:
Рип и синхронизация звука dvdss
Качество: DVDRip
Формат: AVI
Видео: 704x528 (1.33:1), 25 fps, XviD 65 ~2295 kbps avg, 0.25 bit/pixel
Аудио: 48 kHz, AC3 Dolby Digital, 3/2 (L,C,R,l,r) + LFE ch, ~384.00 kbps avg
Субтитры: нет

Подробные технические данные

Format : AVIFormat/Info : Audio Video InterleaveFile size : 186 MiBDuration : 9mn 40sOverall bit rate : 2 690 KbpsWriting application : VirtualDubModRus 1.5.10.2 (build 2542/release)Copyright : Rutracker.orgComment : RG Multfilms by dvdss
VideoID : 0Format : MPEG-4 VisualFormat profile : Advanced Simple@L5Format settings, BVOP : 2Format settings, QPel : NoFormat settings, GMC : No warppointsFormat settings, Matrix : CustomCodec ID : XVIDCodec ID/Hint : XviDDuration : 9mn 40sBit rate : 2 296 KbpsWidth : 704 pixelsHeight : 528 pixelsDisplay aspect ratio : 5:4Original display aspect ratio : 4:3Frame rate : 25.000 fpsColor space : YUVChroma subsampling : 4:2:0Bit depth : 8 bitsScan type : ProgressiveCompression mode : LossyBits/(Pixel*Frame) : 0.247Stream size : 159 MiB (85%)Writing library : XviD 65
AudioID : 1Format : AC-3Format/Info : Audio Coding 3Mode extension : CM (complete main)Format settings, Endianness : BigCodec ID : 2000Duration : 9mn 40sBit rate mode : ConstantBit rate : 384 KbpsChannel(s) : 6 channelsChannel positions : Front: L C R, Side: L R, LFESampling rate : 48.0 KHzBit depth : 16 bitsCompression mode : LossyStream size : 26.6 MiB (14%)Alignment : Aligned on interleavesInterleave, duration : 40 ms (1.00 video frame)Interleave, preload duration : 512 ms
[Профиль] [ЛС]
Кто просматривает тему:

Показать сообщения:    

Текущее время: Сегодня 20:25

Часовой пояс: GMT



Вы не можете начинать темы
Вы не можете отвечать на сообщения
Вы не можете редактировать свои сообщения
Вы не можете удалять свои сообщения
Вы не можете голосовать в опросах
Вы не можете прикреплять файлы к сообщениям
Вы не можете скачивать файлы