Охранник Для Дочери / Сара / Sara (Мацей Шлесицки / Maciej Slesicki) [1997, Польша, боевик, драма, мелодрама, криминал, DVDRip] MVO (НТВ)

 
Автор Сообщение

sergej644 ®

Пол:

Стаж: 4 года 11 месяцев

Сообщений: 6042

Откуда: Soviet Union



Награды: Нет

Торрент-статистика

Создавать темы 21-Авг-2014 19:37

[Цитировать]

Охранник Для Дочери / Сара / Sara
Год выпуска: 1997
Страна: Польша
Жанр: боевик, драма, мелодрама, криминал
Продолжительность: 01:47:23
Перевод: Профессиональный (многоголосый закадровый) - НТВ
Cубтитры: нет
Режиссер: Мацей Шлесицки / Maciej Slesicki
В ролях: Богуслав Линда (Leon), Агнешка Влодарчик (Sara), Цезары Пазура (Cezary), Марек Перепецко (Jоzef), Станислав Брудны (Ojciec Leona), Славомир Сулей (Jas), Дорота Мацейевска (Matka Sary), Як Рекниц (Ochroniarz), Кжиштоф Кумор (Mecenas), Станислав Пенксик (Grubas)-Мировая премьера: 23 мая 1997-Описание: Бывший спецназовец Леон очень крут в своем деле, когда не пьян. А пьян он в последнее время всегда. В таком виде он и предстал перед своим нанимателем — боссом местной мафии, который в данный момент сдерживает осаду конкурентов и ищет профессионального охранника для своей 16 — летней дочери Сары. Несмотря ни на что Леон был нанят. Он действительно оказался лучшим, но тем не менее совершил самую страшную ошибку, которую только мог совершить…-Доп. информация:
Исходник видео - DVD9 от nahlabuchilo
За запись перевода НТВ с телевидения в конце 90-х годов через видеомагнитофон и оцифровку с видеокассеты большое спасибо sera1.
Cинхрон перевода -JUSTKANT.-Информация о переводе:
Данный перевод на трекере раньше был, но почему-то релизы с ним ушли в архив.
Полностью переведены начальные титры + слова песен.
Часть мужских ролей озвучивали Андрей Градов и Юрий Саранцев.-Рейтинг
kinopoisk.ru: 7.793 (8367)
imdb.com: 6.60 (1107)
MPAA: R - Лицам до 17 лет обязательно присутствие взрослого.-Качество видео: DVDRip
Формат видео: AVI -> //SAMPLE//
Видео: XviD, 704x400 (16:9), 25.000 fps, 1733 kbps avg
Аудио:
1 - 48 khz, AC3 Dolby Digital, 2/0 (L,R) ch, ~192 kbps [НТВ / ТНТ] VHSRip

MediaInfo

Общее
Полное имя : E:\Альберт\Downloads\Охранник Для Дочери MVO НТВ.avi
Формат : AVI
Формат/Информация : Audio Video Interleave
Размер файла : 1,45 Гбайт
Продолжительность : 1 ч. 47 м.
Общий поток : 1935 Кбит/сек
Программа кодирования : VirtualDubMod 1.5.10.2 (build 2540/release)
Библиотека кодирования : VirtualDubMod build 2540/release
Видео
Идентификатор : 0
Формат : MPEG-4 Visual
Профиль формата : Advanced Simple@L5
Параметр BVOP формата : 2
Параметр QPel формата : Нет
Параметр GMC формата : Без точки перехода
Параметр матрицы формата : Выборочная
Идентификатор кодека : XVID
Идентификатор кодека/Подсказка : XviD
Продолжительность : 1 ч. 47 м.
Битрейт : 1733 Кбит/сек
Ширина : 704 пикселя
Высота : 400 пикселей
Соотношение сторон : 16:9
Частота кадров : 25,000 кадров/сек
Цветовое пространство : YUV
Субдискретизация насыщенности : 4:2:0
Битовая глубина : 8 бит
Тип развёртки : Прогрессивная
Метод сжатия : С потерями
Бит/(Пиксели*Кадры) : 0.246
Размер потока : 1,30 Гбайт (90%)
Библиотека кодирования : XviD 73
Аудио
Идентификатор : 1
Формат : AC-3
Формат/Информация : Audio Coding 3
Расширение режима : CM (complete main)
Параметр Endianness формата : Big
Идентификатор кодека : 2000
Продолжительность : 1 ч. 47 м.
Вид битрейта : Постоянный
Битрейт : 192 Кбит/сек
Каналы : 2 канала
Расположение каналов : Front: L R
Частота : 48,0 КГц
Битовая глубина : 16 бит
Метод сжатия : С потерями
Размер потока : 147 Мбайт (10%)
Выравнивание : Разделение по промежуткам
Продолжительность промежутка : 40 мс. (1,00 видеокадр)
Время предзагрузки промежутка : 500 мс.

Скриншот c названием фильма

Скриншоты

[Профиль] [ЛС]

Создавать темы 06-Авг-2015 23:06 (спустя 11 месяцев 16 дней)

Топик был перенесен из форума Фильмы до 2014 года в форум Фильмы до 2012 года
sergej644
 
Показать сообщения:    

Текущее время: Сегодня 08:53

Часовой пояс: GMT



Вы не можете начинать темы
Вы не можете отвечать на сообщения
Вы не можете редактировать свои сообщения
Вы не можете удалять свои сообщения
Вы не можете голосовать в опросах
Вы не можете прикреплять файлы к сообщениям
Вы не можете скачивать файлы