Охотничий сезон / Av mevsimi (2010) BDRip 1080p

 
Автор Сообщение

sergej644 ®

Пол:

Стаж: 4 года 11 месяцев

Сообщений: 6046

Откуда: Soviet Union



Награды: Нет

Торрент-статистика

Создавать темы 03-Сен-2015 18:55

[Цитировать]

Название: Охотничий сезон
Оригинальное название: Av mevsimi
Год выпуска: 2010
Жанр: Триллер, драма, криминал, детектив
Режиссер: Явуз Тургул
В ролях: Шенер Шен, Джем Йылмаз, Четин Текиндор, Мелиса Сёзен, Окан Ялабык, Рыза Коджаоглу, Нергис Чоракчи, Мустафа Авкиран, Махир Ипек, Сефика Толун
О фильме:
Жизнь трёх детективов из отдела по расследованию убийств меняется после того, как они приступили к раскрытию дела о девушке, которая исчезла.

Страна: Турция, Fida Film, Pro Film
Продолжительность: 02:24:48
Перевод: Любительский одноголосый по субтитрам (creo140)
Кодек: H.264
Качество: BDRip 1080p
Видео: MPEG-4 AVC, 9899 Кбит/с, 1920x1080, 25.000 кадр/с
Звук: Русский (AC3, 6 ch, 448 Кбит/с), турецкий (DTS, 6 ch, 755 Кбит/с)
Субтитры: Английские

Инфо-файл

Полное имя : E:Av.Mevsimi.2010.x264.BDRip.1080p.NovaLan.mkv
Формат : Matroska
Версия формата : Version 4 / Version 2
Размер файла : 11,2 Гбайт
Продолжительность : 2 ч. 24 м.
Общий поток : 11,1 Мбит/сек
Название фильма : Av Mevsimi 2010 - NovaLan
Дата кодирования : UTC 2015-08-22 13:54:56
Программа кодирования : mkvmerge v8.3.0 ('Over the Horizon') 64bit
Библиотека кодирования : libebml v1.3.1 + libmatroska v1.4.2
DURATION : 02:20:25.593000000
NUMBER_OF_FRAMES : 1532
NUMBER_OF_BYTES : 62083
_STATISTICS_WRITING_APP : mkvmerge v8.3.0 ('Over the Horizon') 64bit
_STATISTICS_WRITING_DATE_UTC : 2015-08-22 13:54:56
_STATISTICS_TAGS : BPS DURATION NUMBER_OF_FRAMES NUMBER_OF_BYTES
Видео
Идентификатор : 1
Формат : AVC
Формат/Информация : Advanced Video Codec
Профиль формата : High@L4.1
Параметр CABAC формата : Да
Параметр ReFrames формата : 4 кадра
Идентификатор кодека : V_MPEG4/ISO/AVC
Продолжительность : 2 ч. 24 м.
Битрейт : 9899 Кбит/сек
Ширина : 1920 пикселей
Высота : 1080 пикселей
Соотношение сторон : 16:9
Частота кадров : 25,000 кадров/сек
Цветовое пространство : YUV
Субдискретизация насыщенности : 4:2:0
Битовая глубина : 8 бит
Тип развёртки : Прогрессивная
Бит/(Пиксели*Кадры) : 0.191
Размер потока : 9,80 Гбайт (87%)
Заголовок : Sergei7721
Библиотека кодирования : x264 core 146 r2538 121396c
Настройки программы : cabac=1 / ref=4 / deblock=1:-1:-1 / analyse=0x3:0x113 / me=umh / subme=11 / psy=1 / psy_rd=1.00:0.20 / mixed_ref=1 / me_range=24 / chroma_me=1 / trellis=2 / 8x8dct=1 / cqm=0 / deadzone=21,11 / fast_pskip=0 / chroma_qp_offset=-3 / threads=12 / lookahead_threads=1 / sliced_threads=0 / nr=0 / decimate=0 / interlaced=0 / bluray_compat=0 / constrained_intra=0 / bframes=6 / b_pyramid=2 / b_adapt=2 / b_bias=0 / direct=3 / weightb=1 / open_gop=0 / weightp=2 / keyint=250 / keyint_min=25 / scenecut=40 / intra_refresh=0 / rc_lookahead=40 / rc=2pass / mbtree=0 / bitrate=9899 / ratetol=1.0 / qcomp=0.60 / qpmin=0 / qpmax=69 / qpstep=4 / cplxblur=20.0 / qblur=0.5 / vbv_maxrate=50000 / vbv_bufsize=62500 / nal_hrd=none / filler=0 / ip_ratio=1.40 / pb_ratio=1.30 / aq=1:1.00
Default : Да
Forced : Нет
DURATION : 02:24:48.000000000
NUMBER_OF_FRAMES : 217200
NUMBER_OF_BYTES : 10748548490
_STATISTICS_WRITING_APP : mkvmerge v8.3.0 ('Over the Horizon') 64bit
_STATISTICS_WRITING_DATE_UTC : 2015-08-22 13:54:56
_STATISTICS_TAGS : BPS DURATION NUMBER_OF_FRAMES NUMBER_OF_BYTES
Аудио #1
Идентификатор : 2
Формат : AC-3
Формат/Информация : Audio Coding 3
Расширение режима : CM (complete main)
Параметр Endianness формата : Big
Идентификатор кодека : A_AC3
Продолжительность : 2 ч. 24 м.
Вид битрейта : Постоянный
Битрейт : 448 Кбит/сек
Каналы : 6 каналов
Расположение каналов : Front: L C R, Side: L R, LFE
Частота : 48,0 КГц
Битовая глубина : 16 бит
Метод сжатия : С потерями
Размер потока : 464 Мбайт (4%)
Язык : Russian
Default : Да
Forced : Нет
Аудио #2
Идентификатор : 3
Формат : DTS
Формат/Информация : Digital Theater Systems
Идентификатор кодека : A_DTS
Продолжительность : 2 ч. 24 м.
Вид битрейта : Постоянный
Битрейт : 755 Кбит/сек
Каналы : 6 каналов
Расположение каналов : Front: L C R, Side: L R, LFE
Частота : 48,0 КГц
Битовая глубина : 24 бит
Метод сжатия : С потерями
Размер потока : 781 Мбайт (7%)
Язык : Turkish
Default : Нет
Forced : Нет
Текст
Идентификатор : 4
Формат : UTF-8
Идентификатор кодека : S_TEXT/UTF8
Идентификатор кодека/Информация : UTF-8 Plain Text
Язык : English
Default : Нет
Forced : Нет
Меню
00:00:00.000 : en:00:00:00.000
00:00:34.080 : en:00:00:34.080
00:02:36.000 : en:00:02:36.000
00:07:09.080 : en:00:07:09.080
00:12:04.880 : en:00:12:04.880
00:18:35.320 : en:00:18:35.320
00:24:23.120 : en:00:24:23.120
00:25:58.200 : en:00:25:58.200
00:33:08.360 : en:00:33:08.360
00:36:24.000 : en:00:36:24.000
00:40:33.320 : en:00:40:33.320
00:41:36.840 : en:00:41:36.840
00:47:36.400 : en:00:47:36.400
00:53:39.120 : en:00:53:39.120
00:55:34.480 : en:00:55:34.480
01:04:47.640 : en:01:04:47.640
01:08:35.160 : en:01:08:35.160
01:17:16.880 : en:01:17:16.880
01:22:46.240 : en:01:22:46.240
01:24:56.960 : en:01:24:56.960
01:28:21.400 : en:01:28:21.400
01:31:06.560 : en:01:31:06.560
01:33:08.520 : en:01:33:08.520
01:35:08.000 : en:01:35:08.000
01:44:00.800 : en:01:44:00.800
01:53:02.600 : en:01:53:02.600
01:54:16.600 : en:01:54:16.600
02:03:35.440 : en:02:03:35.440
02:11:28.000 : en:02:11:28.000
02:20:37.200 : en:02:20:37.200
Релиз группа NovaLan
Автор релиза Sergei7721


[Профиль] [ЛС]
Кто просматривает тему:

Форум Тема Автор Размер
Rock (Поп-Рок) Захар Прилепин & Элефанк - Охотник - 2015, MP3, 192 kbps достали все 70 MB
BBC BBC: Мир природы. Гарпия охотник на обезьян (Орлы Венесуэлы) / Natural World. Monkey Eating Eagle of Venezuela [сезон 30 эпизод 1] (Фергус Биллей / Fergus Beeley) [2010 г., Документальный, HDTVRip... skorpionN 1.43 GB
Action Dark Vampires: The Shadows of Dust / Тень вампира: Ночной охотник [P] [RUS] (2005) TorrentFilm 280 MB
Внежанровая документалистика Discovery: Охотники за речными алмазами / Diamond River Hunters [01-06 из 06] (2015) HDTVRip 720p от HitWay | P достали все 7.75 GB
Movies OST - Охотники за привидениями / Ghostbusters (2016) MP3 Guest 121 MB
Viasat History Viasat History: Охотники за мифами / Raiders Of The Lost Past (Myth Hunters) [сезон 3 серии 1-13 из 13] (Gerry Pomeroy) [2014 г., Документально-постановочный, история, путешествия, исследования,... skorpionN 9.06 GB
Фантастика и фэнтези Антон Демченко – Охотник на духов (2016) MP3 Swager 315 MB
Фильмы (HD DVD, Blu-ray и BDRemux) Белоснежка и охотник / Snow White And The Huntsman (2012) BDRemux 1080p | Extended Cut Russian Mafia 34.96 GB
Показать сообщения:    

Текущее время: Сегодня 22:39

Часовой пояс: GMT



Вы не можете начинать темы
Вы не можете отвечать на сообщения
Вы не можете редактировать свои сообщения
Вы не можете удалять свои сообщения
Вы не можете голосовать в опросах
Вы не можете прикреплять файлы к сообщениям
Вы не можете скачивать файлы