Охотник на пресноводных гигантов / Fish warrior (5 выпускoв) [2010, Документальный цикл, познавательный, HDTV 1080i, RU, EN]

 
Автор Сообщение

TorrentFilm ®

Пол:

Стаж: 1 год 11 месяцев

Сообщений: 7741



Награды: Нет

Торрент-статистика

Создавать темы 16-Май-2015 00:00

[Цитировать]

Охотник на пресноводных гигантов / Fish warrior
Год выпуска: 2010
Страна: США
Студия: Hoff Productions
Жанр: Документальный цикл, познавательный
Продолжительность: 00:45:08
Перевод: Студийный (одноголосый закадровый)
Доп. инфо о переводе: АРК•ТВ
Русские субтитры: нет
Описание: Путешествуя по миру, рыбак -- экстремал Якуб Вагнер рискует жизнью, чтобы найти легендарных пресноводных чудовищ. Но дожили ли речные гиганты до наших дней, они встречаются крайне редко.
11.05.2015 _ добавил: 05. Охотник на пресноводных гигантов. Техасский титан_HDTV 1080i_RU_EN]
перезаливаем

01. Охотник на пресноводных гигантов_Живое ископаемое_HDTV 1080i_RU_EN

Продолжая поиски пресноводных гигантов, Якуб сталкивается лицом к лицу с древним видом рыб, живших еще во времена динозавров: белым осетром.

02. Охотник на пресноводных гигантов_Нильский исполин_HDTV 1080i_RU_EN

Якуб едет к самому крупному в мире непересыхающему озеру в пустыне - озеру Туркана в Кении, где ищет громадного нильского окуня.

03. Охотник на пресноводных гигантов. Амазонский великан_HDTV 1080i_RU

Якуб сталкивается с самой трудной задачей до сих пор, оказавшись один на один с арапаймой, гигантской рыбой, которая практически всеядна.

04. Охотник на пресноводных гигантов. Сом-великан_HDTV 1080i_RU

Для рыбака-рекордсмена Якуба Вагнера не бывает слишком большой рыбы. В этот раз он отправляется на поиски гигантской камакумы в джунгли Амазонки.

05. Охотник на пресноводных гигантов. Техасский титан_HDTV 1080i_RU_EN

Якуб приезжает в Техас, где намерен отыскать панцирную щуку - доисторического речного голиафа с пастью, полной острых как лезвие зубов.
Сэмпл: http://multi-up.com/1014120
Тип релиза: HDTV 1080i
Контейнер: MKV
Видео: MPEG-4 AVC, 1920x1080, (16:9), 25 fps, 8 134 kbps
Аудио: Russian: 48 kHz; Dolby AC3 6ch; 448 kbps
Аудио 2: English: 48 kHz; Dolby AC3 6ch; 448 kbps

MediaInfo

GeneralUnique ID : 164612996893215576282847369737431082218 (0x7BD74F5BD85FB3B3D9AD52F52C26E4EA)Complete name : C:\Охотник на пресноводных гигантов_HDTV 1080i_RU_EN\01. Охотник на пресноводных гигантов_Живое ископаемое_HDTV 1080i_RU_EN_dean10.mkvFormat : MatroskaFormat version : Version 2File size : 2.91 GiBDuration : 45mn 8sOverall bit rate : 9 213 KbpsWriting application : Lavf53.31.100Writing library : Lavf53.31.100
VideoID : 1Format : AVCFormat/Info : Advanced Video CodecFormat profile : High@L4.0Format settings, CABAC : YesFormat settings, ReFrames : 4 framesCodec ID : V_MPEG4/ISO/AVCDuration : 45mn 8sBit rate : 8 134 KbpsWidth : 1 920 pixelsHeight : 1 080 pixelsDisplay aspect ratio : 16:9Frame rate mode : ConstantFrame rate : 25.000 fpsStandard : ComponentColor space : YUVChroma subsampling : 4:2:0Bit depth : 8 bitsScan type : InterlacedScan order : Top Field FirstBits/(Pixel*Frame) : 0.157Stream size : 2.56 GiB (88%)Default : YesForced : NoColor primaries : BT.709Transfer characteristics : BT.709Matrix coefficients : BT.709Color range : Limited
Audio #1ID : 2Format : AC-3Format/Info : Audio Coding 3Mode extension : CM (complete main)Format settings, Endianness : BigCodec ID : A_AC3Duration : 45mn 8sBit rate mode : ConstantBit rate : 448 KbpsChannel(s) : 6 channelsChannel positions : Front: L C R, Side: L R, LFESampling rate : 48.0 KHzBit depth : 16 bitsCompression mode : LossyStream size : 145 MiB (5%)Language : RussianDefault : YesForced : No
Audio #2ID : 3Format : AC-3Format/Info : Audio Coding 3Mode extension : CM (complete main)Format settings, Endianness : BigCodec ID : A_AC3Duration : 45mn 8sBit rate mode : ConstantBit rate : 448 KbpsChannel(s) : 6 channelsChannel positions : Front: L C R, Side: L R, LFESampling rate : 48.0 KHzBit depth : 16 bitsCompression mode : LossyStream size : 145 MiB (5%)Language : EnglishDefault : NoForced : No

Скриншоты

[Профиль] [ЛС]
Кто просматривает тему:

Форум Тема Автор Размер
Rock (Поп-Рок) Захар Прилепин & Элефанк - Охотник - 2015, MP3, 192 kbps достали все 70 MB
BBC BBC: Мир природы. Гарпия охотник на обезьян (Орлы Венесуэлы) / Natural World. Monkey Eating Eagle of Venezuela [сезон 30 эпизод 1] (Фергус Биллей / Fergus Beeley) [2010 г., Документальный, HDTVRip... skorpionN 1.43 GB
Action Dark Vampires: The Shadows of Dust / Тень вампира: Ночной охотник [P] [RUS] (2005) TorrentFilm 280 MB
Внежанровая документалистика Discovery: Охотники за речными алмазами / Diamond River Hunters [01-06 из 06] (2015) HDTVRip 720p от HitWay | P достали все 7.75 GB
Movies OST - Охотники за привидениями / Ghostbusters (2016) MP3 Guest 121 MB
Viasat History Viasat History: Охотники за мифами / Raiders Of The Lost Past (Myth Hunters) [сезон 3 серии 1-13 из 13] (Gerry Pomeroy) [2014 г., Документально-постановочный, история, путешествия, исследования,... skorpionN 9.06 GB
Фантастика и фэнтези Антон Демченко – Охотник на духов (2016) MP3 Swager 315 MB
Фильмы (HD DVD, Blu-ray и BDRemux) Белоснежка и охотник / Snow White And The Huntsman (2012) BDRemux 1080p | Extended Cut Russian Mafia 34.96 GB
Показать сообщения:    

Текущее время: Сегодня 04:58

Часовой пояс: GMT



Вы не можете начинать темы
Вы не можете отвечать на сообщения
Вы не можете редактировать свои сообщения
Вы не можете удалять свои сообщения
Вы не можете голосовать в опросах
Вы не можете прикреплять файлы к сообщениям
Вы не можете скачивать файлы