Охотник за головами / The Bounty Hunter (2010) BDRip 720p | D

 
Автор Сообщение

Russian Mafia ®

Пол:

Стаж: 1 год 8 месяцев

Сообщений: 4257



Награды: 10 (Подробнее)

Top Releaser 5 (Количество: 1) Mega Seeder 1 (Количество: 1) Mega Seeder 2 (Количество: 1)
Торрент-статистика

Создавать темы 18-Сен-2016 20:05

[Цитировать]

Информация о фильме
Название: Охотник за головами
Оригинальное название: The Bounty Hunter
Год выхода: 2010
Жанр: боевик, комедия, мелодрама, криминал
Режиссер: Энди Теннант / Andy Tennant
В ролях: Джерард Батлер, Дженнифер Энистон, Джио Перез, Джоэль Гарлэнд, Джейсон Колотурос, Мэтт Мэллой, Джейсон Судейкис, Адам Роуз, Кристин Барански, Дориан Миссик
О фильме:
Главный герой - Майло, бывший полицейский, а теперь охотник за головами, занимающийся розыском беглых преступников. Он получает задание найти и отправить в тюрьму журналистку Николь, сбежавшую из-под залога. Ирония ситуации в том, что Николь - бывшая жена Майло.

Знаете ли вы, что...

• Одной из кандидатур на главную женскую роль была Сара Джессика Паркер.

Страна: США
Продолжительность: 01:50:38
Перевод: 1: Русский: |Дубляж, |Blu-ray CEE|
2: Украинский: |Дубляж, |Blu-ray CEE|
3: Украинский: профессиональный многоголосый закадровый -|1+1|
4: Украинский: профессиональный многоголосый закадровый - ||ICTV|
5: Английский: оригинал-

MediaInfo:

Общее
Уникальный идентификатор : 174305719917290716681033221844101983431 (0x83220F7FFC8902EBAF99587972FF6CC7)
Полное имя : F:TempThe.Bounty.Hunter.2010.720p.BluRay.Rus.3xUkr.Eng.HDCLUB.mkv
Формат : Matroska
Версия формата : Version 4 / Version 2
Размер файла : 6,33 Гбайт
Продолжительность : 1 ч. 50 м.
Общий поток : 8195 Кбит/сек
Название фильма : The Bounty Hunter (2010) - Release for HDCLUB
Дата кодирования : UTC 2016-09-18 10:29:14
Программа кодирования : mkvmerge v7.9.0 ('Birds') 64bit
Библиотека кодирования : libebml v1.3.1 + libmatroska v1.4.2
DURATION : 01:50:38.592000000
NUMBER_OF_FRAMES : 207456
NUMBER_OF_BYTES : 159326208
_STATISTICS_WRITING_APP : mkvmerge v7.9.0 ('Birds') 64bit
_STATISTICS_WRITING_DATE_UTC : 2016-09-18 10:29:14
_STATISTICS_TAGS : BPS DURATION NUMBER_OF_FRAMES NUMBER_OF_BYTES
Видео
Идентификатор : 1
Формат : AVC
Формат/Информация : Advanced Video Codec
Профиль формата : High@L4.1
Параметр CABAC формата : Да
Параметр ReFrames формата : 8 кадров
Идентификатор кодека : V_MPEG4/ISO/AVC
Продолжительность : 1 ч. 50 м.
Битрейт : 5017 Кбит/сек
Ширина : 1280 пикселей
Высота : 546 пикселей
Соотношение сторон : 2,35:1
Режим частоты кадров : Постоянный
Частота кадров : 23,976 кадра/сек
Цветовое пространство : YUV
Субдискретизация насыщенности : 4:2:0
Битовая глубина : 8 бит
Тип развёртки : Прогрессивная
Бит/(Пиксели*Кадры) : 0.299
Размер потока : 3,76 Гбайт (59%)
Заголовок : The Bounty Hunter (2010) - Release for HDCLUB
Библиотека кодирования : x264 core 100 r1659 57b2e56
Настройки программы : cabac=1 / ref=8 / deblock=1:-3:-3 / analyse=0x3:0x113 / me=tesa / subme=10 / psy=1 / psy_rd=0.80:0.00 / mixed_ref=1 / me_range=16 / chroma_me=1 / trellis=2 / 8x8dct=1 / cqm=0 / deadzone=21,11 / fast_pskip=0 / chroma_qp_offset=-2 / threads=12 / sliced_threads=0 / nr=0 / decimate=0 / interlaced=0 / constrained_intra=0 / bframes=6 / b_pyramid=2 / b_adapt=2 / b_bias=0 / direct=3 / weightb=1 / open_gop=1 / weightp=2 / keyint=250 / keyint_min=25 / scenecut=40 / intra_refresh=0 / rc=2pass / mbtree=0 / bitrate=5017 / ratetol=1.0 / qcomp=0.60 / qpmin=10 / qpmax=51 / qpstep=4 / cplxblur=20.0 / qblur=0.5 / ip_ratio=1.40 / pb_ratio=1.30 / aq=1:0.80
Язык : English
Default : Да
Forced : Нет
DURATION : 01:50:38.632000000
NUMBER_OF_FRAMES : 159168
NUMBER_OF_BYTES : 4162996400
_STATISTICS_WRITING_APP : mkvmerge v7.9.0 ('Birds') 64bit
_STATISTICS_WRITING_DATE_UTC : 2016-09-18 10:29:14
_STATISTICS_TAGS : BPS DURATION NUMBER_OF_FRAMES NUMBER_OF_BYTES
Аудио #1
Идентификатор : 2
Формат : AC-3
Формат/Информация : Audio Coding 3
Расширение режима : CM (complete main)
Параметр Endianness формата : Big
Идентификатор кодека : A_AC3
Продолжительность : 1 ч. 50 м.
Вид битрейта : Постоянный
Битрейт : 640 Кбит/сек
Каналы : 6 каналов
Расположение каналов : Front: L C R, Side: L R, LFE
Частота : 48,0 КГц
Битовая глубина : 16 бит
Метод сжатия : С потерями
Размер потока : 506 Мбайт (8%)
Заголовок : дубляж bac3 6ch 640 kbpsB
Язык : Russian
Default : Да
Forced : Нет
Аудио #2
Идентификатор : 3
Формат : AC-3
Формат/Информация : Audio Coding 3
Расширение режима : CM (complete main)
Параметр Endianness формата : Big
Идентификатор кодека : A_AC3
Продолжительность : 1 ч. 50 м.
Вид битрейта : Постоянный
Битрейт : 640 Кбит/сек
Каналы : 6 каналов
Расположение каналов : Front: L C R, Side: L R, LFE
Частота : 48,0 КГц
Битовая глубина : 16 бит
Метод сжатия : С потерями
Размер потока : 506 Мбайт (8%)
Заголовок : дубляж [ac3 6ch 640 kbps]
Язык : Ukrainian
Default : Нет
Forced : Нет
Аудио #3
Идентификатор : 4
Формат : AC-3
Формат/Информация : Audio Coding 3
Расширение режима : CM (complete main)
Параметр Endianness формата : Big
Идентификатор кодека : A_AC3
Продолжительность : 1 ч. 50 м.
Вид битрейта : Постоянный
Битрейт : 192 Кбит/сек
Каналы : 2 канала
Расположение каналов : Front: L R
Частота : 48,0 КГц
Битовая глубина : 16 бит
Метод сжатия : С потерями
Размер потока : 152 Мбайт (2%)
Заголовок : Многоголосый закадровый - 1+1
Язык : Ukrainian
Default : Нет
Forced : Нет
Аудио #4
Идентификатор : 5
Формат : AC-3
Формат/Информация : Audio Coding 3
Расширение режима : CM (complete main)
Параметр Endianness формата : Big
Идентификатор кодека : A_AC3
Продолжительность : 1 ч. 50 м.
Вид битрейта : Постоянный
Битрейт : 192 Кбит/сек
Каналы : 2 канала
Расположение каналов : Front: L R
Частота : 48,0 КГц
Битовая глубина : 16 бит
Метод сжатия : С потерями
Размер потока : 152 Мбайт (2%)
Заголовок : Многоголосый закадровый - ICTV
Язык : Ukrainian
Default : Нет
Forced : Нет
Аудио #5
Идентификатор : 6
Формат : DTS
Формат/Информация : Digital Theater Systems
Режим : 16
Параметр Endianness формата : Big
Идентификатор кодека : A_DTS
Продолжительность : 1 ч. 50 м.
Вид битрейта : Постоянный
Битрейт : 1509 Кбит/сек
Каналы : 6 каналов
Расположение каналов : Front: L C R, Side: L R, LFE
Частота : 48,0 КГц
Битовая глубина : 24 бит
Метод сжатия : С потерями
Размер потока : 1,17 Гбайт (18%)
Заголовок : original bdts 6ch 1536kbpsB
Язык : English
Default : Нет
Forced : Нет
Текст #1
Идентификатор : 7
Формат : UTF-8
Идентификатор кодека : S_TEXT/UTF8
Идентификатор кодека/Информация : UTF-8 Plain Text
Язык : Russian
Default : Нет
Forced : Нет
Текст #2
Идентификатор : 8
Формат : UTF-8
Идентификатор кодека : S_TEXT/UTF8
Идентификатор кодека/Информация : UTF-8 Plain Text
Заголовок : for
Язык : Russian
Default : Да
Forced : Нет
Текст #3
Идентификатор : 9
Формат : UTF-8
Идентификатор кодека : S_TEXT/UTF8
Идентификатор кодека/Информация : UTF-8 Plain Text
Заголовок : for
Язык : Ukrainian
Default : Нет
Forced : Нет
Текст #4
Идентификатор : 10
Формат : UTF-8
Идентификатор кодека : S_TEXT/UTF8
Идентификатор кодека/Информация : UTF-8 Plain Text
Язык : English
Default : Нет
Forced : Нет
Текст #5
Идентификатор : 11
Формат : UTF-8
Идентификатор кодека : S_TEXT/UTF8
Идентификатор кодека/Информация : UTF-8 Plain Text
Заголовок : sdh
Язык : English
Default : Нет
Forced : Нет
Текст #6
Идентификатор : 12
Формат : UTF-8
Идентификатор кодека : S_TEXT/UTF8
Идентификатор кодека/Информация : UTF-8 Plain Text
Язык : Czech
Default : Нет
Forced : Нет
Текст #7
Идентификатор : 13
Формат : UTF-8
Идентификатор кодека : S_TEXT/UTF8
Идентификатор кодека/Информация : UTF-8 Plain Text
Язык : Danish
Default : Нет
Forced : Нет
Текст #8
Идентификатор : 14
Формат : UTF-8
Идентификатор кодека : S_TEXT/UTF8
Идентификатор кодека/Информация : UTF-8 Plain Text
Язык : Finnish
Default : Нет
Forced : Нет
Текст #9
Идентификатор : 15
Формат : UTF-8
Идентификатор кодека : S_TEXT/UTF8
Идентификатор кодека/Информация : UTF-8 Plain Text
Язык : French
Default : Нет
Forced : Нет
Текст #10
Идентификатор : 16
Формат : UTF-8
Идентификатор кодека : S_TEXT/UTF8
Идентификатор кодека/Информация : UTF-8 Plain Text
Язык : Croatian
Default : Нет
Forced : Нет
Текст #11
Идентификатор : 17
Формат : UTF-8
Идентификатор кодека : S_TEXT/UTF8
Идентификатор кодека/Информация : UTF-8 Plain Text
Язык : Hungarian
Default : Нет
Forced : Нет
Текст #12
Идентификатор : 18
Формат : UTF-8
Идентификатор кодека : S_TEXT/UTF8
Идентификатор кодека/Информация : UTF-8 Plain Text
Язык : Italian
Default : Нет
Forced : Нет
Текст #13
Идентификатор : 19
Формат : UTF-8
Идентификатор кодека : S_TEXT/UTF8
Идентификатор кодека/Информация : UTF-8 Plain Text
Язык : Norwegian
Default : Нет
Forced : Нет
Текст #14
Идентификатор : 20
Формат : UTF-8
Идентификатор кодека : S_TEXT/UTF8
Идентификатор кодека/Информация : UTF-8 Plain Text
Язык : Portuguese
Default : Нет
Forced : Нет
Текст #15
Идентификатор : 21
Формат : UTF-8
Идентификатор кодека : S_TEXT/UTF8
Идентификатор кодека/Информация : UTF-8 Plain Text
Язык : Romanian
Default : Нет
Forced : Нет
Текст #16
Идентификатор : 22
Формат : UTF-8
Идентификатор кодека : S_TEXT/UTF8
Идентификатор кодека/Информация : UTF-8 Plain Text
Язык : Slovenian
Default : Нет
Forced : Нет
Текст #17
Идентификатор : 23
Формат : UTF-8
Идентификатор кодека : S_TEXT/UTF8
Идентификатор кодека/Информация : UTF-8 Plain Text
Язык : Spanish
Default : Нет
Forced : Нет
Текст #18
Идентификатор : 24
Формат : UTF-8
Идентификатор кодека : S_TEXT/UTF8
Идентификатор кодека/Информация : UTF-8 Plain Text
Язык : Spanish
Default : Нет
Forced : Нет
Текст #19
Идентификатор : 25
Формат : UTF-8
Идентификатор кодека : S_TEXT/UTF8
Идентификатор кодека/Информация : UTF-8 Plain Text
Язык : Swedish
Default : Нет
Forced : Нет
Меню
00:00:00.000 : :00:00:00.000
00:07:21.483 : :00:07:21.483
00:15:15.206 : :00:15:15.206
00:20:24.432 : :00:20:24.432
00:28:28.665 : :00:28:28.665
00:35:43.391 : :00:35:43.391
00:41:41.124 : :00:41:41.124
00:50:07.963 : :00:50:07.963
00:55:02.049 : :00:55:02.049
01:03:26.428 : :01:03:26.428
01:11:15.813 : :01:11:15.813
01:15:11.298 : :01:15:11.298
01:23:52.361 : :01:23:52.361
01:28:38.271 : :01:28:38.271
01:36:51.472 : :01:36:51.472
01:43:58.441 : :01:43:58.441
-Файл
Кодек: x.264
Качество: BDRip 720p
Видео: 1280x546 (2.35:1), 23.976 fps, AVC, ~5017 Kbps, 0.299 bits/pixel
Звук:
#1: Russian, 48.0 KHz, AC3, 6 ch, 640 Kbps - дубляж ac3 6ch 640 kbps
#2: Ukrainian, 48.0 KHz, AC3, 6 ch, 640 Kbps - дубляж [ac3 6ch 640 kbps]
#3: Ukrainian, 48.0 KHz, AC3, 2 ch, 192 Kbps - Многоголосый закадровый - 1+1
#4: Ukrainian, 48.0 KHz, AC3, 2 ch, 192 Kbps - Многоголосый закадровый - ICTV
#5: English, 48.0 KHz, DTS, 6 ch, 1510 Kbps - original dts 6ch 1536kbps
Субтитры: Russian, Russian (forced), Ukrainian (forced), English, English (SDH), cze, dan, fin, fre, hrv, hun, ita, nor, por, rum, slv, spa, swe

Скриншоты

Релиз от:
[Профиль] [ЛС]
Кто просматривает тему:

Форум Тема Автор Размер
Rock (Поп-Рок) Захар Прилепин & Элефанк - Охотник - 2015, MP3, 192 kbps достали все 70 MB
BBC BBC: Мир природы. Гарпия охотник на обезьян (Орлы Венесуэлы) / Natural World. Monkey Eating Eagle of Venezuela [сезон 30 эпизод 1] (Фергус Биллей / Fergus Beeley) [2010 г., Документальный, HDTVRip... skorpionN 1.43 GB
Action Dark Vampires: The Shadows of Dust / Тень вампира: Ночной охотник [P] [RUS] (2005) TorrentFilm 280 MB
Внежанровая документалистика Discovery: Охотники за речными алмазами / Diamond River Hunters [01-06 из 06] (2015) HDTVRip 720p от HitWay | P достали все 7.75 GB
Movies OST - Охотники за привидениями / Ghostbusters (2016) MP3 Guest 121 MB
Viasat History Viasat History: Охотники за мифами / Raiders Of The Lost Past (Myth Hunters) [сезон 3 серии 1-13 из 13] (Gerry Pomeroy) [2014 г., Документально-постановочный, история, путешествия, исследования,... skorpionN 9.06 GB
Фантастика и фэнтези Антон Демченко – Охотник на духов (2016) MP3 Swager 315 MB
Фильмы (HD DVD, Blu-ray и BDRemux) Белоснежка и охотник / Snow White And The Huntsman (2012) BDRemux 1080p | Extended Cut Russian Mafia 34.96 GB
Показать сообщения:    

Текущее время: Сегодня 01:26

Часовой пояс: GMT



Вы не можете начинать темы
Вы не можете отвечать на сообщения
Вы не можете редактировать свои сообщения
Вы не можете удалять свои сообщения
Вы не можете голосовать в опросах
Вы не можете прикреплять файлы к сообщениям
Вы не можете скачивать файлы