Охотник за головами / The Bounty Hunter (2010) BDRip 1080p | D

 
Автор Сообщение

Russian Mafia ®

Пол:

Стаж: 1 год 8 месяцев

Сообщений: 4257



Награды: 10 (Подробнее)

Mega Seeder 2 (Количество: 1) Mega Seeder 4 (Количество: 1) Top Releaser 4 (Количество: 1)
Торрент-статистика

Создавать темы 18-Сен-2016 04:31

[Цитировать]

Информация о фильме
Название: Охотник за головами
Оригинальное название: The Bounty Hunter
Год выхода: 2010
Жанр: боевик, комедия, мелодрама, криминал
Режиссер: Энди Теннант / Andy Tennant
В ролях: Джерард Батлер, Дженнифер Энистон, Джио Перез, Джоэль Гарлэнд, Джейсон Колотурос, Мэтт Мэллой, Джейсон Судейкис, Адам Роуз, Кристин Барански, Дориан Миссик
О фильме:
Главный герой - Майло, бывший полицейский, а теперь охотник за головами, занимающийся розыском беглых преступников. Он получает задание найти и отправить в тюрьму журналистку Николь, сбежавшую из-под залога. Ирония ситуации в том, что Николь - бывшая жена Майло.

Знаете ли вы, что...

• Одной из кандидатур на главную женскую роль была Сара Джессика Паркер.

Страна: США
Продолжительность: 01:50:38
Перевод: 1: Русский: |Дубляж, ||Blu-ray CEE|
2: Украинский: |Дубляж, ||Blu-ray CEE|
3: Английский: оригинал-

MediaInfo:

Общее
Уникальный идентификатор : 174128406150158052111374083494499495954 (0x82FFE9419ADA2107BFEA18C668D6B012)
Полное имя : F:TempThe.Bounty.Hunter.2010.1080p.BluRay.Rus.Ukr.Eng.HDCLUB.mkv
Формат : Matroska
Версия формата : Version 2
Размер файла : 11,9 Гбайт
Продолжительность : 1 ч. 50 м.
Общий поток : 15,4 Мбит/сек
Название фильма : The Bounty Hunter (2010) - Release for HDCLUB
Дата кодирования : UTC 2013-10-22 06:45:31
Программа кодирования : mkvmerge v5.7.0 ('The Whirlwind') built on Jul 8 2012 20:08:51
Библиотека кодирования : libebml v1.2.3 + libmatroska v1.3.0
Видео
Идентификатор : 1
Формат : AVC
Формат/Информация : Advanced Video Codec
Профиль формата : High@L4.1
Параметр CABAC формата : Да
Параметр ReFrames формата : 5 кадров
Идентификатор кодека : V_MPEG4/ISO/AVC
Продолжительность : 1 ч. 50 м.
Битрейт : 12,3 Мбит/сек
Ширина : 1920 пикселей
Высота : 816 пикселей
Соотношение сторон : 2,35:1
Режим частоты кадров : Постоянный
Частота кадров : 23,976 кадра/сек
Цветовое пространство : YUV
Субдискретизация насыщенности : 4:2:0
Битовая глубина : 8 бит
Тип развёртки : Прогрессивная
Бит/(Пиксели*Кадры) : 0.328
Размер потока : 9,54 Гбайт (80%)
Библиотека кодирования : x264 core 122 r2184 5c85e0a
Настройки программы : cabac=1 / ref=5 / deblock=1:-3:-3 / analyse=0x3:0x113 / me=umh / subme=11 / psy=1 / psy_rd=1.05:0.00 / mixed_ref=1 / me_range=16 / chroma_me=1 / trellis=2 / 8x8dct=1 / cqm=0 / deadzone=21,11 / fast_pskip=0 / chroma_qp_offset=-2 / threads=6 / sliced_threads=0 / nr=0 / decimate=0 / interlaced=0 / bluray_compat=0 / constrained_intra=0 / bframes=8 / b_pyramid=2 / b_adapt=2 / b_bias=0 / direct=3 / weightb=1 / open_gop=0 / weightp=2 / keyint=250 / keyint_min=23 / scenecut=40 / intra_refresh=0 / rc_lookahead=40 / rc=crf / mbtree=1 / crf=18.0 / qcomp=0.80 / qpmin=0 / qpmax=69 / qpstep=4 / ip_ratio=1.30 / aq=1:0.95
Язык : English
Default : Да
Forced : Нет
Аудио #1
Идентификатор : 2
Формат : AC-3
Формат/Информация : Audio Coding 3
Расширение режима : CM (complete main)
Параметр Endianness формата : Big
Идентификатор кодека : A_AC3
Продолжительность : 1 ч. 50 м.
Вид битрейта : Постоянный
Битрейт : 640 Кбит/сек
Каналы : 6 каналов
Расположение каналов : Front: L C R, Side: L R, LFE
Частота : 48,0 КГц
Битовая глубина : 16 бит
Метод сжатия : С потерями
Размер потока : 506 Мбайт (4%)
Заголовок : дубляж [ac3 6ch 640 kbps]
Язык : Russian
Default : Да
Forced : Нет
Аудио #2
Идентификатор : 3
Формат : AC-3
Формат/Информация : Audio Coding 3
Расширение режима : CM (complete main)
Параметр Endianness формата : Big
Идентификатор кодека : A_AC3
Продолжительность : 1 ч. 50 м.
Вид битрейта : Постоянный
Битрейт : 640 Кбит/сек
Каналы : 6 каналов
Расположение каналов : Front: L C R, Side: L R, LFE
Частота : 48,0 КГц
Битовая глубина : 16 бит
Метод сжатия : С потерями
Размер потока : 506 Мбайт (4%)
Заголовок : дубляж [ac3 6ch 640 kbps]
Язык : Ukrainian
Default : Нет
Forced : Нет
Аудио #3
Идентификатор : 4
Формат : DTS
Формат/Информация : Digital Theater Systems
Режим : 16
Параметр Endianness формата : Big
Идентификатор кодека : A_DTS
Продолжительность : 1 ч. 50 м.
Вид битрейта : Постоянный
Битрейт : 1509 Кбит/сек
Каналы : 6 каналов
Расположение каналов : Front: L C R, Side: L R, LFE
Частота : 48,0 КГц
Битовая глубина : 24 бит
Метод сжатия : С потерями
Размер потока : 1,17 Гбайт (10%)
Заголовок : English DTS 5.1 - 1510 kbps
Язык : English
Default : Нет
Forced : Нет
Текст #1
Идентификатор : 5
Формат : UTF-8
Идентификатор кодека : S_TEXT/UTF8
Идентификатор кодека/Информация : UTF-8 Plain Text
Язык : Russian
Default : Нет
Forced : Нет
Текст #2
Идентификатор : 6
Формат : UTF-8
Идентификатор кодека : S_TEXT/UTF8
Идентификатор кодека/Информация : UTF-8 Plain Text
Заголовок : for
Язык : Russian
Default : Да
Forced : Нет
Текст #3
Идентификатор : 7
Формат : UTF-8
Идентификатор кодека : S_TEXT/UTF8
Идентификатор кодека/Информация : UTF-8 Plain Text
Заголовок : for
Язык : Ukrainian
Default : Нет
Forced : Нет
Текст #4
Идентификатор : 8
Формат : UTF-8
Идентификатор кодека : S_TEXT/UTF8
Идентификатор кодека/Информация : UTF-8 Plain Text
Язык : English
Default : Нет
Forced : Нет
Текст #5
Идентификатор : 9
Формат : UTF-8
Идентификатор кодека : S_TEXT/UTF8
Идентификатор кодека/Информация : UTF-8 Plain Text
Заголовок : sdh
Язык : English
Default : Нет
Forced : Нет
Текст #6
Идентификатор : 10
Формат : UTF-8
Идентификатор кодека : S_TEXT/UTF8
Идентификатор кодека/Информация : UTF-8 Plain Text
Язык : Czech
Default : Нет
Forced : Нет
Текст #7
Идентификатор : 11
Формат : UTF-8
Идентификатор кодека : S_TEXT/UTF8
Идентификатор кодека/Информация : UTF-8 Plain Text
Язык : Danish
Default : Нет
Forced : Нет
Текст #8
Идентификатор : 12
Формат : UTF-8
Идентификатор кодека : S_TEXT/UTF8
Идентификатор кодека/Информация : UTF-8 Plain Text
Язык : Finnish
Default : Нет
Forced : Нет
Текст #9
Идентификатор : 13
Формат : UTF-8
Идентификатор кодека : S_TEXT/UTF8
Идентификатор кодека/Информация : UTF-8 Plain Text
Язык : French
Default : Нет
Forced : Нет
Текст #10
Идентификатор : 14
Формат : UTF-8
Идентификатор кодека : S_TEXT/UTF8
Идентификатор кодека/Информация : UTF-8 Plain Text
Язык : Croatian
Default : Нет
Forced : Нет
Текст #11
Идентификатор : 15
Формат : UTF-8
Идентификатор кодека : S_TEXT/UTF8
Идентификатор кодека/Информация : UTF-8 Plain Text
Язык : Hungarian
Default : Нет
Forced : Нет
Текст #12
Идентификатор : 16
Формат : UTF-8
Идентификатор кодека : S_TEXT/UTF8
Идентификатор кодека/Информация : UTF-8 Plain Text
Язык : Italian
Default : Нет
Forced : Нет
Текст #13
Идентификатор : 17
Формат : UTF-8
Идентификатор кодека : S_TEXT/UTF8
Идентификатор кодека/Информация : UTF-8 Plain Text
Язык : Norwegian
Default : Нет
Forced : Нет
Текст #14
Идентификатор : 18
Формат : UTF-8
Идентификатор кодека : S_TEXT/UTF8
Идентификатор кодека/Информация : UTF-8 Plain Text
Язык : Portuguese
Default : Нет
Forced : Нет
Текст #15
Идентификатор : 19
Формат : UTF-8
Идентификатор кодека : S_TEXT/UTF8
Идентификатор кодека/Информация : UTF-8 Plain Text
Язык : Romanian
Default : Нет
Forced : Нет
Текст #16
Идентификатор : 20
Формат : UTF-8
Идентификатор кодека : S_TEXT/UTF8
Идентификатор кодека/Информация : UTF-8 Plain Text
Язык : Slovenian
Default : Нет
Forced : Нет
Текст #17
Идентификатор : 21
Формат : UTF-8
Идентификатор кодека : S_TEXT/UTF8
Идентификатор кодека/Информация : UTF-8 Plain Text
Язык : Spanish
Default : Нет
Forced : Нет
Текст #18
Идентификатор : 22
Формат : UTF-8
Идентификатор кодека : S_TEXT/UTF8
Идентификатор кодека/Информация : UTF-8 Plain Text
Язык : Spanish
Default : Нет
Forced : Нет
Текст #19
Идентификатор : 23
Формат : UTF-8
Идентификатор кодека : S_TEXT/UTF8
Идентификатор кодека/Информация : UTF-8 Plain Text
Язык : Swedish
Default : Нет
Forced : Нет
Меню
00:00:00.000 : en:00:00:00.000
00:07:21.483 : en:00:07:21.483
00:15:15.206 : en:00:15:15.206
00:20:24.432 : en:00:20:24.432
00:28:28.665 : en:00:28:28.665
00:35:43.391 : en:00:35:43.391
00:41:41.124 : en:00:41:41.124
00:50:07.963 : en:00:50:07.963
00:55:02.049 : en:00:55:02.049
01:03:26.428 : en:01:03:26.428
01:11:15.813 : en:01:11:15.813
01:15:11.298 : en:01:15:11.298
01:23:52.361 : en:01:23:52.361
01:28:38.271 : en:01:28:38.271
01:36:51.472 : en:01:36:51.472
01:43:58.441 : en:01:43:58.441
-Файл
Кодек: x.264
Качество: BDRip 1080p
Видео: 1920x816 (2.35:1), 23.976 fps, AVC, ~12.3 Mbps, 0.328 bits/pixel
Звук:
#1: Russian, 48.0 KHz, AC3, 6 ch, 640 Kbps - дубляж [ac3 6ch 640 kbps]
#2: Ukrainian, 48.0 KHz, AC3, 6 ch, 640 Kbps - дубляж [ac3 6ch 640 kbps]
#3: English, 48.0 KHz, DTS, 6 ch, 1510 Kbps - English DTS 5.1 - 1510 kbps
Субтитры: Russian, Russian (forced), Ukrainian (forced), English, English (SDH), cze, dan, fin, fre, hrv, hun, ita, nor, por, rum, slv, spa, swe

Скриншоты

Релиз от:
[Профиль] [ЛС]
Кто просматривает тему:

Форум Тема Автор Размер
Rock (Поп-Рок) Захар Прилепин & Элефанк - Охотник - 2015, MP3, 192 kbps достали все 70 MB
BBC BBC: Мир природы. Гарпия охотник на обезьян (Орлы Венесуэлы) / Natural World. Monkey Eating Eagle of Venezuela [сезон 30 эпизод 1] (Фергус Биллей / Fergus Beeley) [2010 г., Документальный, HDTVRip... skorpionN 1.43 GB
Action Dark Vampires: The Shadows of Dust / Тень вампира: Ночной охотник [P] [RUS] (2005) TorrentFilm 280 MB
Внежанровая документалистика Discovery: Охотники за речными алмазами / Diamond River Hunters [01-06 из 06] (2015) HDTVRip 720p от HitWay | P достали все 7.75 GB
Movies OST - Охотники за привидениями / Ghostbusters (2016) MP3 Guest 121 MB
Viasat History Viasat History: Охотники за мифами / Raiders Of The Lost Past (Myth Hunters) [сезон 3 серии 1-13 из 13] (Gerry Pomeroy) [2014 г., Документально-постановочный, история, путешествия, исследования,... skorpionN 9.06 GB
Фантастика и фэнтези Антон Демченко – Охотник на духов (2016) MP3 Swager 315 MB
Фильмы (HD DVD, Blu-ray и BDRemux) Белоснежка и охотник / Snow White And The Huntsman (2012) BDRemux 1080p | Extended Cut Russian Mafia 34.96 GB
Показать сообщения:    

Текущее время: Сегодня 16:54

Часовой пояс: GMT



Вы не можете начинать темы
Вы не можете отвечать на сообщения
Вы не можете редактировать свои сообщения
Вы не можете удалять свои сообщения
Вы не можете голосовать в опросах
Вы не можете прикреплять файлы к сообщениям
Вы не можете скачивать файлы