Охотники на демонов в 3Д / Hellbenders 3D (Дж.Т. Петти / J.T. Petty) [2012, Комедия, Ужасы, BDrip-AVC] Crop Half OverUnder / Вертикальная анаморфная стереопара Без черных полос (На весь экран)

 
Автор Сообщение

TorrentFilm ®

Пол:

Стаж: 2 года

Сообщений: 7741



Награды: Нет

Торрент-статистика

Создавать темы 02-Янв-2016 00:10

[Цитировать]

Охотники на демонов в 3Д / Hellbenders 3D
«Нечистая сила в шоке»
Год выпуска: 2012
Страна: США
Жанр: Комедия, Ужасы
Продолжительность: 01:26:44
Перевод: Профессиональный (дублированный) - Лицензия
Режиссер: Дж.Т. Петти
Актеры: Клифтон Коллинз мл., Клэнси Браун, Андре Ройо, Робин Рикун, Макон Блэр, Стивен Геведон, Ларри Фесенден, Дэн Фоглер, Аарон Ауслендер, Эдоардо Баллерини
Описание: Эксцентричная комедия о команде распутных экзорцистов, изгоняющих нечистую силу, которая жаждет ввергнуть Землю в хаос. Члены Ордена используют любую возможность согрешить для того, чтобы привлечь внимание демонов. Их план прост и эффективен: они заставляют демона вселиться в одного из них, а потом берут его тепленьким. Но однажды они сталкиваются кое с кем посильнее, чем мелкие бесы. Сам Сатана решает бросить им вызов! Охотникам приходится впасть во все тяжкие и отправить дьявола обратно в Ад!
Рейтинг MPAA: PG-17
Возраст: 18+
Формат 3D: Half OverUnder / Вертикальная анаморфная стереопара - Кроп
Порядок ракурсов: левый ракурс первый
Качество: BDRip
Контейнер: MKV
Видео кодек: x264
Аудио кодек: AC3
Видео: MPEG-4 AVC, 13 Mбит/с, 1920х1080, 23.976 кадр/с
Аудио 1: Русский, 48 kHz, AC3, 6 ch, 256 kbps [Дубляж - Лицензия]
Аудио 2: English, 48 kHz, AC3, 6 ch, 640 kbps [Original]Внимание: Справа и слева у видеоряда обрезано по 246 пикселей, что дает возможность просмотра на технике с соотношением сторон 16:9 в полноэкранном режиме (без черных полос) без нарушения пропорций!

Скриншоты

MediaInfo

Общее
Уникальный идентификатор : 240400380432591131179657617436743944272 (0xB4DB6DDB93939EBC804C05273905C850)
Полное имя : D:\Download\Hellbenders 3D 2012 BDRip 1080p Crop halfOU [3d-tracker.ru].mkv
Формат : Matroska
Версия формата : Version 2
Размер файла : 8,57 Гбайт
Продолжительность : 1 ч. 26 м.
Общий поток : 14,1 Мбит/сек
Название фильма : 3d-tracker.ru
Дата кодирования : UTC 2014-04-02 13:10:00
Программа кодирования : mkvmerge v4.0.0 ('The Stars were mine') сборка от Jun 6 2010 16:18:42
Библиотека кодирования : libebml v1.0.0 + libmatroska v1.0.0
Видео
Идентификатор : 1
Формат : AVC
Формат/Информация : Advanced Video Codec
Профиль формата : High@L4.1
Параметр CABAC формата : Да
Параметр ReFrames формата : 4 кадра
Идентификатор кодека : V_MPEG4/ISO/AVC
Продолжительность : 1 ч. 26 м.
Битрейт : 13,0 Мбит/сек
Ширина : 1920 пикселей
Высота : 1080 пикселей
Соотношение сторон : 16:9
Режим частоты кадров : Постоянный
Частота кадров : 23,976 кадра/сек
Цветовое пространство : YUV
Субдискретизация насыщенности : 4:2:0
Битовая глубина : 8 бит
Тип развёртки : Прогрессивная
Бит/(Пиксели*Кадры) : 0.261
Размер потока : 7,86 Гбайт (92%)
Заголовок : 3d-tracker.ru
Библиотека кодирования : x264 core 128 r2216M 198a7ea
Настройки программы : cabac=1 / ref=4 / deblock=1:-3:-3 / analyse=0x3:0x133 / me=umh / subme=10 / psy=1 / psy_rd=1.00:0.15 / mixed_ref=1 / me_range=32 / chroma_me=1 / trellis=2 / 8x8dct=1 / cqm=0 / deadzone=21,11 / fast_pskip=1 / chroma_qp_offset=-3 / threads=8 / lookahead_threads=1 / sliced_threads=0 / nr=0 / decimate=1 / interlaced=0 / bluray_compat=0 / constrained_intra=0 / bframes=6 / b_pyramid=2 / b_adapt=2 / b_bias=0 / direct=3 / weightb=1 / open_gop=0 / weightp=2 / keyint=230 / keyint_min=23 / scenecut=40 / intra_refresh=0 / rc_lookahead=60 / rc=crf / mbtree=1 / crf=17.0 / qcomp=0.60 / qpmin=0 / qpmax=69 / qpstep=4 / vbv_maxrate=40000 / vbv_bufsize=30000 / crf_max=30.0 / nal_hrd=none / ip_ratio=1.40 / aq=1:1.00
Язык : English
Default : Нет
Forced : Нет
Аудио #1
Идентификатор : 2
Формат : AC-3
Формат/Информация : Audio Coding 3
Расширение режима : CM (complete main)
Параметр Endianness формата : Big
Идентификатор кодека : A_AC3
Продолжительность : 1 ч. 26 м.
Вид битрейта : Постоянный
Битрейт : 256 Кбит/сек
Каналы : 6 каналов
Расположение каналов : Front: L C R, Side: L R, LFE
Частота : 48,0 КГц
Битовая глубина : 16 бит
Метод сжатия : С потерями
Размер потока : 159 Мбайт (2%)
Заголовок : 3d-tracker.ru
Язык : Russian
Default : Нет
Forced : Нет
Аудио #2
Идентификатор : 3
Формат : AC-3
Формат/Информация : Audio Coding 3
Расширение режима : CM (complete main)
Параметр Endianness формата : Big
Идентификатор кодека : A_AC3
Продолжительность : 1 ч. 26 м.
Вид битрейта : Постоянный
Битрейт : 640 Кбит/сек
Каналы : 6 каналов
Расположение каналов : Front: L C R, Side: L R, LFE
Частота : 48,0 КГц
Битовая глубина : 16 бит
Метод сжатия : С потерями
Размер потока : 397 Мбайт (5%)
Заголовок : 3d-tracker.ru
Язык : English
Default : Нет
Forced : Нет
Меню
00:00:00.000 : en:(01)00:00:00:000
00:05:57.357 : en:(02)00:05:57:357
00:10:47.647 : en:(03)00:10:47:647
00:19:38.093 : en:(04)00:19:38:093
00:31:20.295 : en:(05)00:31:20:295
00:43:51.795 : en:(06)00:43:51:795
00:49:48.527 : en:(07)00:49:48:527
00:53:50.185 : en:(08)00:53:50:185
01:00:48.227 : en:(09)01:00:48:227
01:05:22.043 : en:(10)01:05:22:043
01:17:32.939 : en:(11)01:17:32:939
01:21:34.180 : en:(12)01:21:34:180
01:26:43.990 : en:(13)01:26:43:990
[Профиль] [ЛС]
Кто просматривает тему:

Форум Тема Автор Размер
Rock (Поп-Рок) Захар Прилепин & Элефанк - Охотник - 2015, MP3, 192 kbps достали все 70 MB
BBC BBC: Мир природы. Гарпия охотник на обезьян (Орлы Венесуэлы) / Natural World. Monkey Eating Eagle of Venezuela [сезон 30 эпизод 1] (Фергус Биллей / Fergus Beeley) [2010 г., Документальный, HDTVRip... skorpionN 1.43 GB
Action Dark Vampires: The Shadows of Dust / Тень вампира: Ночной охотник [P] [RUS] (2005) TorrentFilm 280 MB
Внежанровая документалистика Discovery: Охотники за речными алмазами / Diamond River Hunters [01-06 из 06] (2015) HDTVRip 720p от HitWay | P достали все 7.75 GB
Movies OST - Охотники за привидениями / Ghostbusters (2016) MP3 Guest 121 MB
Viasat History Viasat History: Охотники за мифами / Raiders Of The Lost Past (Myth Hunters) [сезон 3 серии 1-13 из 13] (Gerry Pomeroy) [2014 г., Документально-постановочный, история, путешествия, исследования,... skorpionN 9.06 GB
Фантастика и фэнтези Антон Демченко – Охотник на духов (2016) MP3 Swager 315 MB
Фильмы (HD DVD, Blu-ray и BDRemux) Белоснежка и охотник / Snow White And The Huntsman (2012) BDRemux 1080p | Extended Cut Russian Mafia 34.96 GB
Показать сообщения:    

Текущее время: Сегодня 02:25

Часовой пояс: GMT



Вы не можете начинать темы
Вы не можете отвечать на сообщения
Вы не можете редактировать свои сообщения
Вы не можете удалять свои сообщения
Вы не можете голосовать в опросах
Вы не можете прикреплять файлы к сообщениям
Вы не можете скачивать файлы