Охотники за сокровищами / The Monuments Men (Джордж Клуни / George Clooney) [2014, США, Германия, военный, драма, комедия, HDRip] Dub

 
Автор Сообщение

Создавать темы 14-Июл-2014 09:08

Охотники за сокровищами / The Monuments Men- Страна: США, Германия
Жанр: военный, драма, комедия
Год выпуска: 2014
Продолжительность: 01:58:23-Перевод: Профессиональный (дублированный) - Лицензия
Cубтитры: есть - на немецкую речь - отдельно-Режиссер: Джордж Клуни / George Clooney-В ролях: Джордж Клуни, Мэтт Дэймон, Билл Мюррей, Джон Гудман, Жан Дюжарден, Боб Бэлабан, Хью Бонневилль, Кейт Бланшетт, Димитрий Леонидас, Юстус фон Донаньи-Описание: Фильм основан на реальных событиях — величайшей охоте на сокровища в истории. Во время Второй мировой войны команда из искусствоведов и хранителей музеев объединяется, чтобы спасти известные произведения искусства, похищенные нацистами, прежде чем те успеют их уничтожить.-Сэмпл: http://multi-up.com/977670-Качество видео: HDRip [Исходник: BDRip 720p (Monuments Men.2014.720p.x264-LEONARDO)]
Формат видео: AVI
Видео кодек: XviD
Аудио кодек: МР3
Видео: 688x288 (2.39:1), 23.976 fps, XviD build 73 ~751 kbps avg, 0.16 bit/pixel
Аудио: 48 kHz, MPEG Layer 3, 2 ch, ~128.00 kbps avg

MediaInfo

Общее
Полное имя : D:\Monuments Men.2014.HDRip_by_Danres.avi
Формат : AVI
Формат/Информация : Audio Video Interleave
Размер файла : 752 Мбайт
Продолжительность : 1 ч. 58 м.
Общий поток : 889 Кбит/сек
Программа кодирования : VirtualDubMod 1.5.10.3 | www.virtualdub-fr.org || (build 2550/release)
Библиотека кодирования : VirtualDubMod build 2550/release
Видео
Идентификатор : 0
Формат : MPEG-4 Visual
Профиль формата : Advanced Simple@L5
Параметр BVOP формата : 1
Параметр QPel формата : Нет
Параметр GMC формата : Без точки перехода
Параметр матрицы формата : Выборочная
Идентификатор кодека : XVID
Идентификатор кодека/Подсказка : XviD
Продолжительность : 1 ч. 58 м.
Битрейт : 751 Кбит/сек
Ширина : 688 пикселей
Высота : 288 пикселей
Соотношение сторон : 2,40:1
Частота кадров : 23,976 кадра/сек
Цветовое пространство : YUV
Субдискретизация насыщенности : 4:2:0
Битовая глубина : 8 бит
Тип развёртки : Прогрессивная
Метод сжатия : С потерями
Бит/(Пиксели*Кадры) : 0.158
Размер потока : 636 Мбайт (85%)
Библиотека кодирования : XviD 73
Аудио
Идентификатор : 1
Формат : MPEG Audio
Версия формата : Version 1
Профиль формата : Layer 3
Идентификатор кодека : 55
Идентификатор кодека/Подсказка : MP3
Продолжительность : 1 ч. 58 м.
Вид битрейта : Постоянный
Битрейт : 128 Кбит/сек
Каналы : 2 канала
Частота : 48,0 КГц
Метод сжатия : С потерями
Размер потока : 108 Мбайт (14%)
Выравнивание : Соединение по промежуткам
Продолжительность промежутка : 42 мс. (1,00 видеокадр)
Время предзагрузки промежутка : 504 мс.
Библиотека кодирования : LAME3.99r
Настройки программы : -m s -V 4 -q 2 -lowpass 17 -b 128

Скриншоты

-ДРУЗЬЯ! ПОЖАЛУЙСТА, НЕ УХОДИТЕ С РАЗДАЧИ КАК МОЖНО ДОЛЬШЕ!-
 
Кто просматривает тему:

Форум Тема Автор Размер
Rock (Поп-Рок) Захар Прилепин & Элефанк - Охотник - 2015, MP3, 192 kbps достали все 70 MB
BBC BBC: Мир природы. Гарпия охотник на обезьян (Орлы Венесуэлы) / Natural World. Monkey Eating Eagle of Venezuela [сезон 30 эпизод 1] (Фергус Биллей / Fergus Beeley) [2010 г., Документальный, HDTVRip... skorpionN 1.43 GB
Action Dark Vampires: The Shadows of Dust / Тень вампира: Ночной охотник [P] [RUS] (2005) TorrentFilm 280 MB
Внежанровая документалистика Discovery: Охотники за речными алмазами / Diamond River Hunters [01-06 из 06] (2015) HDTVRip 720p от HitWay | P достали все 7.75 GB
Movies OST - Охотники за привидениями / Ghostbusters (2016) MP3 Guest 121 MB
Viasat History Viasat History: Охотники за мифами / Raiders Of The Lost Past (Myth Hunters) [сезон 3 серии 1-13 из 13] (Gerry Pomeroy) [2014 г., Документально-постановочный, история, путешествия, исследования,... skorpionN 9.06 GB
Фантастика и фэнтези Антон Демченко – Охотник на духов (2016) MP3 Swager 315 MB
Фильмы (HD DVD, Blu-ray и BDRemux) Белоснежка и охотник / Snow White And The Huntsman (2012) BDRemux 1080p | Extended Cut Russian Mafia 34.96 GB
Показать сообщения:    

Текущее время: Сегодня 08:30

Часовой пояс: GMT



Вы не можете начинать темы
Вы не можете отвечать на сообщения
Вы не можете редактировать свои сообщения
Вы не можете удалять свои сообщения
Вы не можете голосовать в опросах
Вы не можете прикреплять файлы к сообщениям
Вы не можете скачивать файлы