Охотники за привидениями / Ghostbusters (2016) HDRip от ImperiaFilm | КПК | iTunes

 
Автор Сообщение

Шкипер ®

Пол:

Стаж: 1 год 7 месяцев

Сообщений: 52



Награды: Нет

Торрент-статистика

Создавать темы 02-Окт-2016 16:23

[Цитировать]

Информация о фильме
Название: Охотники за привидениями
Оригинальное название: Ghostbusters
Год выхода: 2016
Жанр: Фантастика, фэнтези, боевик, комедия
Режиссер: Пол Фиг
В ролях: Мелисса МакКарти, Кристен Уиг, Кейт МакКиннон, Лесли Джонс, Крис Хемсворт, Сесили Стронг, Энди Гарсиа, Нил Кэйси, Чарльз Дэнс, Майкл Кеннет Уильямс
О фильме:
Решили как-то энергичная толстушка, затюканная училка, блондинистая стервочка и чернокожая бой-баба спасти несчастный город Нью-Йорк от привидений, что полезли внезапно изо всех щелей....

Страна: США
Студия: Columbia Pictures, Feigco Entertainment, The Montecito Picture Company
Продолжительность: 01:56:34
Перевод: Дублированный | iTunes
Файл
Кодек: h264
Качество: HDRip| КПК
Видео: MPEG4 Video (H264), 496x208 (2.40:1), 23.976fps, 500kbps, 0.202 Bits/Pixel
Звук: aac lc, 44100 Hz, stereo, 126 kb/s
Субтитры: Отсутствуют
Семпл

MI

General
Complete name : E:Изготовление рипаGhostbusters.2016.HDRip by shkiper.mp4
Format : MPEG-4
Format profile : Base Media
Codec ID : isom (isom/avc1)
File size : 524 MiB
Duration : 1h 56mn
Overall bit rate mode : Variable
Overall bit rate : 629 Kbps
Encoded date : UTC 2016-09-30 14:04:23
Tagged date : UTC 2016-09-30 14:04:23
Video
ID : 1
Format : AVC
Format/Info : Advanced Video Codec
Format profile : Baseline@L3
Format settings, CABAC : No
Format settings, ReFrames : 1 frame
Codec ID : avc1
Codec ID/Info : Advanced Video Coding
Duration : 1h 56mn
Bit rate : 500 Kbps
Maximum bit rate : 1 632 Kbps
Width : 496 pixels
Height : 208 pixels
Display aspect ratio : 2.40:1
Frame rate mode : Constant
Frame rate : 23.976 (24000/1001) fps
Original frame rate : 23.976 (23976/1000) fps
Color space : YUV
Chroma subsampling : 4:2:0
Bit depth : 8 bits
Scan type : Progressive
Bits/(Pixel*Frame) : 0.202
Stream size : 417 MiB (79%)
Title : Imported with GPAC 0.4.6-DEV (internal rev. 5)
Writing library : x264 core 67 r1165M 6841c5e
Encoding settings : cabac=0 / ref=1 / deblock=1:0:0 / analyse=0x1:0 / me=hex / subme=6 / psy_rd=1.0:0.0 / mixed_ref=0 / me_range=16 / chroma_me=1 / trellis=0 / 8x8dct=0 / cqm=0 / deadzone=21,11 / chroma_qp_offset=-2 / threads=3 / nr=0 / decimate=1 / mbaff=0 / bframes=0 / keyint=250 / keyint_min=25 / scenecut=40 / rc=2pass / bitrate=500 / ratetol=1.0 / qcomp=0.60 / qpmin=10 / qpmax=51 / qpstep=4 / cplxblur=20.0 / qblur=0.5 / vbv_maxrate=1500 / vbv_bufsize=2000 / ip_ratio=1.40 / aq=1:1.00
Encoded date : UTC 2016-09-30 14:04:23
Tagged date : UTC 2016-09-30 14:05:18
Audio
ID : 2
Format : AAC
Format/Info : Advanced Audio Codec
Format profile : LC
Codec ID : 40
Duration : 1h 56mn
Bit rate mode : Variable
Bit rate : 127 Kbps
Maximum bit rate : 296 Kbps
Channel(s) : 2 channels
Channel positions : Front: L R
Sampling rate : 44.1 KHz
Frame rate : 43.066 fps (1024 spf)
Compression mode : Lossy
Stream size : 106 MiB (20%)
Title : Imported with GPAC 0.4.6-DEV (internal rev. 5)
Encoded date : UTC 2016-09-30 14:05:07
Tagged date : UTC 2016-09-30 14:05:18

Скриншоты

Релиз от:
[Профиль] [ЛС]

Создавать темы 19-Окт-2016 07:44 (спустя 16 дней)

Топик был перенесен из форума Фильмы для iOS,iPad, iPhone в форум Видео для КПК и Смартфонов
Russian Mafia
 
Кто просматривает тему:

Форум Тема Автор Размер
Rock (Поп-Рок) Захар Прилепин & Элефанк - Охотник - 2015, MP3, 192 kbps достали все 70 MB
BBC BBC: Мир природы. Гарпия охотник на обезьян (Орлы Венесуэлы) / Natural World. Monkey Eating Eagle of Venezuela [сезон 30 эпизод 1] (Фергус Биллей / Fergus Beeley) [2010 г., Документальный, HDTVRip... skorpionN 1.43 GB
Action Dark Vampires: The Shadows of Dust / Тень вампира: Ночной охотник [P] [RUS] (2005) TorrentFilm 280 MB
Внежанровая документалистика Discovery: Охотники за речными алмазами / Diamond River Hunters [01-06 из 06] (2015) HDTVRip 720p от HitWay | P достали все 7.75 GB
Movies OST - Охотники за привидениями / Ghostbusters (2016) MP3 Guest 121 MB
Viasat History Viasat History: Охотники за мифами / Raiders Of The Lost Past (Myth Hunters) [сезон 3 серии 1-13 из 13] (Gerry Pomeroy) [2014 г., Документально-постановочный, история, путешествия, исследования,... skorpionN 9.06 GB
Фантастика и фэнтези Антон Демченко – Охотник на духов (2016) MP3 Swager 315 MB
Фильмы (HD DVD, Blu-ray и BDRemux) Белоснежка и охотник / Snow White And The Huntsman (2012) BDRemux 1080p | Extended Cut Russian Mafia 34.96 GB
Показать сообщения:    

Текущее время: Сегодня 12:52

Часовой пояс: GMT



Вы не можете начинать темы
Вы не можете отвечать на сообщения
Вы не можете редактировать свои сообщения
Вы не можете удалять свои сообщения
Вы не можете голосовать в опросах
Вы не можете прикреплять файлы к сообщениям
Вы не можете скачивать файлы