Охотники за привидениями / Ghostbusters (2016) BDRemux 1080p | iTunes

 
Автор Сообщение

достали все ®

Пол:

Стаж: 1 год 8 месяцев

Сообщений: 6577



Награды: 12 (Подробнее)

Mega Seeder 5 (Количество: 1) Mega Releaser 3 (Количество: 1) Top Releaser 4 (Количество: 1)
Торрент-статистика

Создавать темы 29-Сен-2016 11:52

[Цитировать]

Информация о фильме
Название: Охотники за привидениями
Оригинальное название: Ghostbusters
Год выхода: 2016
Жанр: Фантастика, фэнтези, боевик, комедия
Режиссер: Пол Фиг
В ролях: Мелисса МакКарти, Кристен Уиг, Кейт МакКиннон, Лесли Джонс, Крис Хемсворт, Сесили Стронг, Энди Гарсиа, Нил Кэйси, Чарльз Дэнс, Майкл Кеннет Уильямс
О фильме:
Решили как-то энергичная толстушка, затюканная училка, блондинистая стервочка и чернокожая бой-баба спасти несчастный город Нью-Йорк от привидений, что полезли внезапно изо всех щелей. А тут еще Крис Хемсворт пришел – напомаженный такой, манерный, жеманный. Пришел он, значит, и говорит – «Девочки, последний кусок докторской колбасы я сегодня доел, и ежели меня в вашу команду вы не возьмете, то, не откладывая дела в долгий ящик, ноги немедля и протяну». И такого шороху нагнала бравая женская команда на потусторонний мир, что мама не горюй, всем несчастным призракам мало не показалось - аж жаль их стало, так над ними наши фемины измывались. Всех, всех привидений они разогнали по адским углам, где им самое место, и зажили все дружно и счастливо, а дамы наши в пылу схватки с нечистью даже умудрились вроде бы как свое хрупкое женское счастье найти. Да и у Криса Хемсворта получше житуха стала – с докторской колбасы перешел он на финский сервелат. Вот как бывает, а вы говорите…

Страна: США
Студия: Columbia Pictures, Feigco Entertainment, The Montecito Picture Company
Продолжительность: 01:56:34
Перевод: Дублированный | iTunes
Файл
Кодек: MPEG-4
Качество: BDRemux 1080p
Видео: 1920x1080, 21.8 Mbit/s, 23.976 fps
Звук:
Аудио #01: 48 kHz, AC3, 5.1, 384 Kbps | Дублированный | iTunes |
Аудио #02: 48 kHz, DTS-HD MA, 5.1, 2306 kbps | Оригинал |
Субтитры: Русские, английские

MI

General
Unique ID : 177432683747286375437473034980706167268 (0x857C4AB8444FFB5E9F8E7A70776729E4)
Complete name : H:VideoGhostbusters.2016.BDREMUX.1080p.ExKinoRay.mkv
Format : Matroska
Format version : Version 4 / Version 2
File size : 19.9 GiB
Duration : 1 h 56 min
Overall bit rate mode : Variable
Overall bit rate : 24.5 Mb/s
Movie name : build by ***селезень***
Encoded date : UTC 2016-09-29 09:52:22
Writing application : mkvmerge v8.3.0 ('Over the Horizon') 64bit
Writing library : libebml v1.3.1 + libmatroska v1.4.2
Video
ID : 1
Format : AVC
Format/Info : Advanced Video Codec
Format profile : High@L4.1
Format settings, CABAC : Yes
Format settings, ReFrames : 2 frames
Format settings, GOP : M=1, N=10
Codec ID : V_MPEG4/ISO/AVC
Duration : 1 h 56 min
Bit rate mode : Variable
Bit rate : 21.8 Mb/s
Width : 1 920 pixels
Height : 1 080 pixels
Display aspect ratio : 16:9
Frame rate mode : Constant
Frame rate : 23.976 (24000/1001) FPS
Color space : YUV
Chroma subsampling : 4:2:0
Bit depth : 8 bits
Scan type : Progressive
Bits/(Pixel*Frame) : 0.438
Stream size : 17.7 GiB (89%)
Title : build by ***селезень***
Language : English
Default : Yes
Forced : No
Audio #1
ID : 2
Format : AC-3
Format/Info : Audio Coding 3
Mode extension : CM (complete main)
Format settings, Endianness : Big
Codec ID : A_AC3
Duration : 1 h 56 min
Bit rate mode : Constant
Bit rate : 384 kb/s
Channel(s) : 6 channels
Channel positions : Front: L C R, Side: L R, LFE
Sampling rate : 48.0 kHz
Frame rate : 31.250 FPS (1536 spf)
Compression mode : Lossy
Stream size : 320 MiB (2%)
Title : iTunes
Language : Russian
Default : Yes
Forced : No
Audio #2
ID : 3
Format : DTS
Format/Info : Digital Theater Systems
Format profile : MA / Core
Mode : 16
Format settings, Endianness : Big
Codec ID : A_DTS
Duration : 1 h 56 min
Bit rate mode : Variable / Constant
Bit rate : 2 306 kb/s / 1 509 kb/s
Channel(s) : 6 channels
Channel positions : Front: L C R, Side: L R, LFE
Sampling rate : 48.0 kHz
Frame rate : 93.750 FPS (512 spf)
Bit depth : 16 bits
Compression mode : Lossless / Lossy
Stream size : 1.88 GiB (9%)
Title : Original
Language : English
Default : No
Forced : No
Text #1
ID : 4
Format : UTF-8
Codec ID : S_TEXT/UTF8
Codec ID/Info : UTF-8 Plain Text
Duration : 1 h 55 min
Bit rate : 119 b/s
Count of elements : 2042
Stream size : 101 KiB (0%)
Title : Full
Language : Russian
Default : No
Forced : No
Text #2
ID : 5
Format : UTF-8
Codec ID : S_TEXT/UTF8
Codec ID/Info : UTF-8 Plain Text
Duration : 1 h 55 min
Bit rate : 82 b/s
Count of elements : 2122
Stream size : 69.4 KiB (0%)
Title : Full
Language : English
Default : No
Forced : No
Menu
00:00:00.000 : en:
00:08:24.295 : en:
00:15:21.754 : en:
00:19:59.240 : en:
00:25:27.901 : en:
00:33:55.950 : en:
00:39:04.133 : en:
00:45:24.305 : en:
00:51:51.108 : en:
00:56:33.348 : en:
01:01:52.417 : en:
01:07:04.103 : en:
01:15:43.288 : en:
01:23:30.338 : en:
01:32:41.639 : en:
01:42:49.580 : en:

Автор релиза:
[Профиль] [ЛС]
Кто просматривает тему:

Форум Тема Автор Размер
Rock (Поп-Рок) Захар Прилепин & Элефанк - Охотник - 2015, MP3, 192 kbps достали все 70 MB
BBC BBC: Мир природы. Гарпия охотник на обезьян (Орлы Венесуэлы) / Natural World. Monkey Eating Eagle of Venezuela [сезон 30 эпизод 1] (Фергус Биллей / Fergus Beeley) [2010 г., Документальный, HDTVRip... skorpionN 1.43 GB
Action Dark Vampires: The Shadows of Dust / Тень вампира: Ночной охотник [P] [RUS] (2005) TorrentFilm 280 MB
Внежанровая документалистика Discovery: Охотники за речными алмазами / Diamond River Hunters [01-06 из 06] (2015) HDTVRip 720p от HitWay | P достали все 7.75 GB
Movies OST - Охотники за привидениями / Ghostbusters (2016) MP3 Guest 121 MB
Viasat History Viasat History: Охотники за мифами / Raiders Of The Lost Past (Myth Hunters) [сезон 3 серии 1-13 из 13] (Gerry Pomeroy) [2014 г., Документально-постановочный, история, путешествия, исследования,... skorpionN 9.06 GB
Фантастика и фэнтези Антон Демченко – Охотник на духов (2016) MP3 Swager 315 MB
Фильмы (HD DVD, Blu-ray и BDRemux) Белоснежка и охотник / Snow White And The Huntsman (2012) BDRemux 1080p | Extended Cut Russian Mafia 34.96 GB
Показать сообщения:    

Текущее время: Сегодня 08:12

Часовой пояс: GMT



Вы не можете начинать темы
Вы не можете отвечать на сообщения
Вы не можете редактировать свои сообщения
Вы не можете удалять свои сообщения
Вы не можете голосовать в опросах
Вы не можете прикреплять файлы к сообщениям
Вы не можете скачивать файлы