Охотники за привидениями / Ghostbusters (Айвен Райтман) [1984 г., фантастика, фэнтези, боевик, комедия, BDRip-AVC] [MVO]

 
Автор Сообщение

Bathory ®

Пол:

Стаж: 1 год 5 месяцев

Сообщений: 287



Награды: 3 (Подробнее)

Girls (Количество: 1) Друг (Количество: 1) За внесенный вклад в развитие сайта (Количество: 1)
Торрент-статистика

Создавать темы 13-Авг-2017 10:42

[Цитировать]

Охотники за привидениями / Ghostbusters- Информация о фильме
Название: Охотники за привидениями
Оригинальное название: Ghostbusters
Год выхода: 1984
Жанр: фантастика, фэнтези, боевик, комедия
Режиссер: Айвен Райтман
В ролях: Билл Мюррей, Дэн Эйкройд, Сигурни Уивер, Харольд Рэмис, Рик Морэнис, Энни Поттс, Уильям Этертон, Эрни Хадсон, Дэвид Маргулис, Стивен Тэш
О фильме:
В конце двадцатого века оказывается, что в Нью — Йорке живут не только обычные граждане, но и… привидения. Многомиллионное население не может противостоять натиску сверхъестественного.
В конце концов на пути бесчисленных монстров не остается никого — кроме троих ученых — парапсихологов, которым известно все о потустороннем мире, правда только в теории. И теперь им придется оставить пыльные кабинеты и применить свои знания на практике…

Страна: США
Студия: Columbia Pictures Corporation, Delphi Films, Black Rhino Productions
Продолжительность: 01:45:08
Перевод: Профессиональный (многоголосый закадровый) Видеосервис
Файл
Кодек: AVC
Качество: BDRip-AVC |Blu-Ray 1080p|
Видео: 744x312, 927 kbps, 23,976 fps, 0,167 Bits/(Pixel*Frame)
Звук: AAC, 48 kHz, 2 ch, 64 kbps
Субтитры: русские форсированные, русские полные (2 вида), английские, английские SDH

MI

Общее
Unique ID : 210347135004082654548383729310085557152 (0x9E3F6275478B7FEAB4DC4D1E425E2BA0)
Complete name : D:\GhostBusters.1984.BDRip-AVC.MegaPeer.mkv
Format : Matroska
Format version : Version 4 / Version 2
File size : 746 Мбайт
Duration : 1 ч. 45 м.
Overall bit rate : 992 Кбит/сек
Encoded date : UTC 2017-08-12 21:14:47
Writing application : mkvmerge v14.0.0 ('Flow') 64bit
Writing library : libebml v1.3.4 + libmatroska v1.4.5
Видео
ID : 1
Format : AVC
Format/Info : Advanced Video Codec
Format profile : High@L4.1
Format settings, CABAC : Да
Format settings, RefFrames : 12 кадров
Codec ID : V_MPEG4/ISO/AVC
Duration : 1 ч. 45 м.
Bit rate : 927 Кбит/сек
Width : 744 пикселя
Height : 312 пикселей
Display aspect ratio : 2,40:1
Frame rate mode : Постоянный
Frame rate : 23,976 (24000/1001) кадра/сек
Color space : YUV
Chroma subsampling : 4:2:0
Bit depth : 8 бит
Scan type : Прогрессивная
Bits/(Pixel*Frame) : 0.167
Stream size : 697 Мбайт (93%)
Writing library : x264 core 152 r2851 ba24899
Encoding settings : cabac=1 / ref=12 / deblock=1:0:0 / analyse=0x3:0x133 / me=umh / subme=11 / psy=1 / psy_rd=1.10:0.17 / mixed_ref=1 / me_range=32 / chroma_me=1 / trellis=2 / 8x8dct=1 / cqm=0 / deadzone=21,11 / fast_pskip=0 / chroma_qp_offset=-3 / threads=10 / lookahead_threads=2 / sliced_threads=0 / nr=0 / decimate=0 / interlaced=0 / bluray_compat=0 / constrained_intra=0 / bframes=14 / b_pyramid=2 / b_adapt=2 / b_bias=0 / direct=3 / weightb=1 / open_gop=0 / weightp=2 / keyint=240 / keyint_min=23 / scenecut=0 / intra_refresh=0 / rc_lookahead=60 / rc=2pass / mbtree=1 / bitrate=927 / ratetol=1.0 / qcomp=0.60 / qpmin=0 / qpmax=51 / qpstep=4 / cplxblur=15.0 / qblur=0.5 / vbv_maxrate=50000 / vbv_bufsize=62500 / nal_hrd=none / filler=0 / ip_ratio=1.40 / aq=2:1.00
Default : Да
Forced : Нет
Аудио
ID : 2
Format : AAC
Format/Info : Advanced Audio Codec
Format profile : HE-AAC / LC
Codec ID : A_AAC
Duration : 1 ч. 45 м.
Bit rate : 64,0 Кбит/сек
Channel(s) : 2 канала
Channel positions : Front: L R
Sampling rate : 48,0 КГц / 24,0 КГц
Frame rate : 23,438 кадра/сек (1024 SPF)
Compression mode : С потерями
Delay relative to video : 31 мс.
Stream size : 48,1 Мбайт (6%)
Language : Russian
Default : Да
Forced : Нет
Текст #1
ID : 3
Format : UTF-8
Codec ID : S_TEXT/UTF8
Codec ID/Info : UTF-8 Plain Text
Duration : 1 ч. 28 м.
Bit rate : 0 бит/сек
Count of elements : 17
Stream size : 553 байт (0%)
Title : Forced
Language : Russian
Default : Да
Forced : Да
Текст #2
ID : 4
Format : UTF-8
Codec ID : S_TEXT/UTF8
Codec ID/Info : UTF-8 Plain Text
Duration : 1 ч. 36 м.
Bit rate : 69 бит/сек
Count of elements : 810
Stream size : 49,1 Кбайт (0%)
Language : Russian
Default : Нет
Forced : Нет
Текст #3
ID : 5
Format : UTF-8
Codec ID : S_TEXT/UTF8
Codec ID/Info : UTF-8 Plain Text
Duration : 1 ч. 36 м.
Bit rate : 109 бит/сек
Count of elements : 1132
Stream size : 77,2 Кбайт (0%)
Language : Russian
Default : Нет
Forced : Нет
Текст #4
ID : 6
Format : UTF-8
Codec ID : S_TEXT/UTF8
Codec ID/Info : UTF-8 Plain Text
Duration : 1 ч. 36 м.
Bit rate : 64 бит/сек
Count of elements : 1132
Stream size : 45,3 Кбайт (0%)
Title : Full
Language : English
Default : Нет
Forced : Нет
Текст #5
ID : 7
Format : UTF-8
Codec ID : S_TEXT/UTF8
Codec ID/Info : UTF-8 Plain Text
Duration : 1 ч. 38 м.
Bit rate : 65 бит/сек
Count of elements : 1227
Stream size : 47,8 Кбайт (0%)
Title : SDH
Language : English
Default : Нет
Forced : Нет
Меню
00:00:00.000 : en:00:00:00.000
00:06:39.065 : en:00:06:39.065
00:15:46.445 : en:00:15:46.445
00:21:50.059 : en:00:21:50.059
00:34:51.965 : en:00:34:51.965
00:39:06.678 : en:00:39:06.678
00:48:46.715 : en:00:48:46.715
00:52:15.883 : en:00:52:15.883
00:55:04.051 : en:00:55:04.051
01:04:33.411 : en:01:04:33.411
01:10:41.946 : en:01:10:41.946
01:13:35.286 : en:01:13:35.286
01:18:58.525 : en:01:18:58.525
01:25:17.029 : en:01:25:17.029
01:30:44.731 : en:01:30:44.731
01:32:08.001 : en:01:32:08.001
01:38:02.821 : en:01:38:02.821

Скриншоты

Релиз:
[Профиль] [ЛС]
Кто просматривает тему:

Форум Тема Автор Размер
Rock (Поп-Рок) Захар Прилепин & Элефанк - Охотник - 2015, MP3, 192 kbps достали все 70 MB
BBC BBC: Мир природы. Гарпия охотник на обезьян (Орлы Венесуэлы) / Natural World. Monkey Eating Eagle of Venezuela [сезон 30 эпизод 1] (Фергус Биллей / Fergus Beeley) [2010 г., Документальный, HDTVRip... skorpionN 1.43 GB
Внежанровая документалистика Discovery: Охотники за речными алмазами / Diamond River Hunters [01-06 из 06] (2015) HDTVRip 720p от HitWay | P достали все 7.75 GB
Movies OST - Охотники за привидениями / Ghostbusters (2016) MP3 Guest 121 MB
Viasat History Viasat History: Охотники за мифами / Raiders Of The Lost Past (Myth Hunters) [сезон 3 серии 1-13 из 13] (Gerry Pomeroy) [2014 г., Документально-постановочный, история, путешествия, исследования,... skorpionN 9.06 GB
Фантастика и фэнтези Антон Демченко – Охотник на духов (2016) MP3 Swager 315 MB
Фильмы (HD DVD, Blu-ray и BDRemux) Белоснежка и охотник / Snow White And The Huntsman (2012) BDRemux 1080p | Extended Cut Russian Mafia 34.96 GB
Фильмы (HD Rips | 720p, 1080p) Белоснежка и охотник / Snow White and the Huntsman (2012) BDRip 1080p | Extended Cut Russian Mafia 5.76 GB
Показать сообщения:    

Текущее время: Сегодня 09:58

Часовой пояс: GMT



Вы не можете начинать темы
Вы не можете отвечать на сообщения
Вы не можете редактировать свои сообщения
Вы не можете удалять свои сообщения
Вы не можете голосовать в опросах
Вы не можете прикреплять файлы к сообщениям
Вы не можете скачивать файлы