Охота / The Hunt / Jagten (2012) BDRip 1080p | P

 
Автор Сообщение

Russian Mafia ®

Пол:

Стаж: 1 год 8 месяцев

Сообщений: 4257



Награды: 10 (Подробнее)

Mega Seeder 2 (Количество: 1) За внесенный вклад в развитие сайта (Количество: 1) Top Releaser 5 (Количество: 1)
Торрент-статистика

Создавать темы 15-Окт-2015 07:46

[Цитировать]

Название: Охота
Оригинальное название: Jagten
Год выпуска: 2012
Жанр: Драма
Выпущено: Дания, Film i Väst, Zentropa Entertainments
Режиссер: Томас Винтерберг
В ролях: Мадс Миккельсен, Томас Бо Ларсен, Анника Веддеркопп, Лассе Фогельстрём, Суссе Уолд, Анне Луизе Хассинг, Ларс Ранте, Александра Рапапорт, Оле Дюпон, Рикке Бергманн
О фильме: Учитель живет одинокой жизнью, все время борется за опеку над сыном. Его жизнь постепенно становится лучше, когда он находит любовь и получает хорошие новости от сына, но его новая жизнь вот-вот будет жестоко разрушена невинной ложью.

Знаете ли вы, что...

Идея разработки подобного проекта возникла у Винтерберга после каннского триумфа ленты «Торжество». Режиссёр начал получать множество сценариев, прежде всего семейных драм и трагедий. Однажды на пороге его дома появился близкий знакомый, датский психолог. В его архиве с давних пор хранились интересные случаи «о фантазиях, которые замещают реальные воспоминания». Он заявил, что Винтерберг обязательно должен выбрать один из них и сделать по его мотивам фильм.
Съёмки стартовали в декабре 2011 года в датской административной области Зеландия и продлились семь недель. К окончанию съёмочного процесса Винтерберг был не уверен в финальной сцене, поэтому он снял несколько эпизодов, после чего долго спорил с коллегами, какой лучше выбрать.

Качество: BDRip 1080p
Видео: MPEG-4 AVC, 13.6 Мбит/с, 1920x816, 24 кадр/с
Аудио: Русский (AC3, 6 ch, 448 Кбит/с), датский (DTS, 6 ch, 1536 Кбит/с)
Продолжительность: 01:55:28
Перевод: Профессиональный многоголосый
Субтитры: Русские, английские

Скриншоты

MediaInfo

Общее
Уникальный идентификатор : 202892595081141945668363122339443160101 (0x98A3B1437E5C6785A7EA691D6F14B425)
Полное имя : Охота.2012.BDRip.(1080p).mkv
Формат : Matroska
Версия формата : Version 2
Размер файла : 12,8 Гбайт
Продолжительность : 1 ч. 55 м.
Общий поток : 15,9 Мбит/сек
Дата кодирования : UTC 2014-01-03 07:37:55
Программа кодирования : mkvmerge v5.8.0 ('No Sleep / Pillow') built on Sep 2 2012 15:37:04
Библиотека кодирования : libebml v1.2.3 + libmatroska v1.3.0
Attachements : poster.jpg
Видео
Идентификатор : 1
Формат : AVC
Формат/Информация : Advanced Video Codec
Профиль формата : High@L4.1
Параметр CABAC формата : Да
Параметр ReFrames формата : 5 кадров
Идентификатор кодека : V_MPEG4/ISO/AVC
Продолжительность : 1 ч. 55 м.
Битрейт : 13,6 Мбит/сек
Ширина : 1920 пикселей
Высота : 816 пикселей
Соотношение сторон : 2,35:1
Режим частоты кадров : Постоянный
Частота кадров : 24,000 кадра/сек
Цветовое пространство : YUV
Субдискретизация насыщенности : 4:2:0
Битовая глубина : 8 бит
Тип развёртки : Прогрессивная
Бит/(Пиксели*Кадры) : 0.363
Размер потока : 11,0 Гбайт (86%)
Заголовок : Jagten 2012 1080p BluRay DD5.1 x264-EbP
Библиотека кодирования : x264 core 135 r2345 f0c1c53
Настройки программы : cabac=1 / ref=5 / deblock=1:-3:-3 / analyse=0x3:0x113 / me=umh / subme=10 / psy=1 / psy_rd=0.80:0.00 / mixed_ref=1 / me_range=24 / chroma_me=1 / trellis=2 / 8x8dct=1 / cqm=0 / deadzone=21,11 / fast_pskip=0 / chroma_qp_offset=-2 / threads=12 / lookahead_threads=2 / sliced_threads=0 / nr=0 / decimate=0 / interlaced=0 / bluray_compat=0 / constrained_intra=0 / bframes=7 / b_pyramid=2 / b_adapt=2 / b_bias=0 / direct=3 / weightb=1 / open_gop=0 / weightp=2 / keyint=250 / keyint_min=24 / scenecut=40 / intra_refresh=0 / rc=crf / mbtree=0 / crf=15.8 / qcomp=0.60 / qpmin=0 / qpmax=69 / qpstep=4 / ip_ratio=1.40 / pb_ratio=1.30 / aq=1:0.90 / zones=160248,166287,crf=30
Язык : English
Default : Да
Forced : Нет
Аудио #1
Идентификатор : 2
Формат : AC-3
Формат/Информация : Audio Coding 3
Расширение режима : CM (complete main)
Параметр Endianness формата : Big
Идентификатор кодека : A_AC3
Продолжительность : 1 ч. 55 м.
Вид битрейта : Постоянный
Битрейт : 448 Кбит/сек
Каналы : 6 каналов
Расположение каналов : Front: L C R, Side: L R, LFE
Частота : 48,0 КГц
Метод сжатия : С потерями
Размер потока : 370 Мбайт (3%)
Заголовок : MVO, R5
Язык : Russian
Default : Да
Forced : Нет
Аудио #2
Идентификатор : 3
Формат : DTS
Формат/Информация : Digital Theater Systems
Режим : 16
Параметр Endianness формата : Big
Идентификатор кодека : A_DTS
Продолжительность : 1 ч. 55 м.
Вид битрейта : Постоянный
Битрейт : 1509 Кбит/сек
Каналы : 6 каналов
Расположение каналов : Front: L C R, Side: L R, LFE
Частота : 48,0 КГц
Битовая глубина : 24 бит
Метод сжатия : С потерями
Размер потока : 1,22 Гбайт (9%)
Язык : Danish
Default : Нет
Forced : Нет
Текст #1
Идентификатор : 4
Формат : UTF-8
Идентификатор кодека : S_TEXT/UTF8
Идентификатор кодека/Информация : UTF-8 Plain Text
Язык : Russian
Default : Нет
Forced : Нет
Текст #2
Идентификатор : 5
Формат : UTF-8
Идентификатор кодека : S_TEXT/UTF8
Идентификатор кодека/Информация : UTF-8 Plain Text
Заголовок : full
Язык : English
Default : Нет
Forced : Нет
Текст #3
Идентификатор : 6
Формат : UTF-8
Идентификатор кодека : S_TEXT/UTF8
Идентификатор кодека/Информация : UTF-8 Plain Text
Заголовок : SDH
Язык : English
Default : Нет
Forced : Нет
Меню
00:00:00.000 : en:Walk Home
00:09:39.375 : en:Present
00:19:33.417 : en:Hunting
00:28:21.042 : en:Questions
00:38:22.000 : en:Indecent Conduct
00:47:14.583 : en:Get Out
00:59:34.833 : en:Marcus
01:08:43.292 : en:The Basement
01:18:49.292 : en:Groceries
01:28:31.958 : en:Christmas Eve
01:39:57.000 : en:Amends
01:48:51.250 : en:Credits
[Профиль] [ЛС]
Кто просматривает тему:

Форум Тема Автор Размер
Viasat History Viasat History: Охота на ведьм: столетие убийств / Witch Hunt A Century of Murder [серии 1-2 из 2] (Chris Holt) [2015 г., Документально-постановчный, история, SATRip] skorpionN 1.25 GB
RPG Ведьмак 3: Дикая Охота / The Witcher 3: Wild Hunt - Game of the Year Edition [v 1.31 + 18 DLC] (2015) PC | Repack от xatab Russian Mafia 31.1 GB
RPG Ведьмак 3: Дикая Охота / The Witcher 3: Wild Hunt - Game of the Year Edition [v 1.31 + 18 DLC] (2015) PC | Лицензия Russian Mafia 36.99 GB
RPG Ведьмак 3: Дикая Охота / The Witcher 3: Wild Hunt - Game of the Year Edition [v 1.31] (2015) PC | RePack от VickNet Russian Mafia 29.6 GB
RPG Ведьмак 3: Дикая Охота / The Witcher 3: Wild Hunt - Game of the Year Edition [v.1.31 + DLC] (2015) PC | RePack от =nemos= Russian Mafia 33.55 GB
RPG Ведьмак 3: Дикая Охота / The Witcher 3: Wild Hunt - Game of the Year Edition [v.1.31 + DLC] (2015) PC | RePack от FitGirl достали все 27.3 GB
R.G.TorrentFilm Video Горячие парни (Выпуски 1-4 из 4) (Охота и рыбалка) [2002 г., Pыбалка, TVRip] Один 777 1.17 GB
Документальные HD Группа А: Охота на Шпионов (Александр Сидоров) [2015, Документальный, HDTV 720p] TorrentFilm 1.29 GB
Показать сообщения:    

Текущее время: Сегодня 01:23

Часовой пояс: GMT



Вы не можете начинать темы
Вы не можете отвечать на сообщения
Вы не можете редактировать свои сообщения
Вы не можете удалять свои сообщения
Вы не можете голосовать в опросах
Вы не можете прикреплять файлы к сообщениям
Вы не можете скачивать файлы