Охота / Jagten (2012) BDRip-AVC от potroks | P | Лицензия

 
Автор Сообщение

Russian Mafia ®

Пол:

Стаж: 1 год 8 месяцев

Сообщений: 4253



Награды: 10 (Подробнее)

Mega Seeder 5 (Количество: 1) Top Releaser 4 (Количество: 1) Mega Seeder 3 (Количество: 1)
Торрент-статистика

Создавать темы 15-Окт-2015 07:45

[Цитировать]

Год выпуска: 2012
Производство: Дания / Film i Väst, Zentropa Entertainments
Жанр: Драма
Продолжительность: 01:50:41
Перевод: Профессиональный (многоголосый закадровый) лицензия
Субтитры: Английские-Режиссер: Томас Винтерберг
В ролях: Мадс Миккелсен, Томас Бо Ларсен, Анника Веддеркопп, Лассе Фогельстрём, Суссе Уолд, Анне Луизе Хассинг, Ларс Ранте, Александра Рапапорт, Оле Дюпон, Рикке Бергманн
О фильме:
После мучительного развода 40-летний Лукас находит новую подругу, новую работу и стремится восстановить отношения со своим сыном-подростком Маркусом. Но ему что-то мешает... Что-то, казалось бы, незначительное. Замечание, сделанное между прочим. Мелкая ложь. И вот накануне Рождества, когда падает снег и зажигаются огни на елке, ложь разрастается и проникает повсюду, как невидимый вирус. Растет недоверие, и все вокруг оказываются в состоянии коллективной истерии. Лукас вынужден бороться за свою жизнь и достоинство.-Бюджет: $3 800 000 - -Качество: BDRip-AVC [Blu-Ray Remux]
Формат: MKV
Видео: H.264, 1120x476 (2,35:1), 25,000 fps, 1440 Кbps, 0.108 bit/pixel
Аудио: 48 kHz, AC3 Dolby Digital, 3/2 (L,C,R,l,r) + LFE ch, 448.00 kbps
-Автор рипа: -

MI

Общее
Уникальный идентификатор : 176176265405559873080271014600537035711 (0x848A50834CF3CB608C201ADA37D453BF)
Полное имя : Ohota.2012.P.BDRip.x264.potroks.mkv
Формат : Matroska
Версия формата : Version 4 / Version 2
Размер файла : 1,46 Гбайт
Продолжительность : 1 ч. 50 м.
Общий поток : 1888 Кбит/сек
Название фильма : -=POTROKS=-
Дата кодирования : UTC 2013-05-14 19:20:45
Программа кодирования : mkvmerge v5.9.0 ('On The Loose') built on Dec 15 2012 16:39:58
Библиотека кодирования : libebml v1.3.0 + libmatroska v1.4.0
Видео
Идентификатор : 1
Формат : AVC
Формат/Информация : Advanced Video Codec
Профиль формата : High@L4.1
Параметр CABAC формата : Да
Параметр ReFrames формата : 13 кадров
Идентификатор кодека : V_MPEG4/ISO/AVC
Продолжительность : 1 ч. 50 м.
Битрейт : 1440 Кбит/сек
Ширина : 1120 пикселей
Высота : 476 пикселей
Соотношение сторон : 2,35:1
Режим частоты кадров : Постоянный
Частота кадров : 25,000 кадров/сек
Цветовое пространство : YUV
Субдискретизация насыщенности : 4:2:0
Битовая глубина : 8 бит
Тип развёртки : Прогрессивная
Бит/(Пиксели*Кадры) : 0.108
Размер потока : 1,08 Гбайт (74%)
Заголовок : Jagten
Библиотека кодирования : x264 core 128 r2216M 198a7ea
Настройки программы : cabac=1 / ref=14 / deblock=1:-2:-1 / analyse=0x3:0x133 / me=umh / subme=11 / psy=1 / psy_rd=1.08:0.03 / mixed_ref=1 / me_range=32 / chroma_me=1 / trellis=2 / 8x8dct=1 / cqm=0 / deadzone=21,11 / fast_pskip=0 / chroma_qp_offset=-3 / threads=6 / lookahead_threads=1 / sliced_threads=0 / nr=0 / decimate=1 / interlaced=0 / bluray_compat=0 / constrained_intra=0 / bframes=15 / b_pyramid=1 / b_adapt=2 / b_bias=0 / direct=3 / weightb=1 / open_gop=0 / weightp=2 / keyint=250 / keyint_min=25 / scenecut=40 / intra_refresh=0 / rc_lookahead=150 / rc=2pass / mbtree=1 / bitrate=1440 / ratetol=1.0 / qcomp=0.70 / qpmin=0 / qpmax=69 / qpstep=4 / cplxblur=20.0 / qblur=0.5 / vbv_maxrate=20000 / vbv_bufsize=25000 / nal_hrd=none / ip_ratio=1.35 / aq=1:0.80
Язык : Danish
Default : Да
Forced : Нет
Аудио
Идентификатор : 2
Формат : AC-3
Формат/Информация : Audio Coding 3
Расширение режима : CM (complete main)
Параметр Endianness формата : Big
Идентификатор кодека : A_AC3
Продолжительность : 1 ч. 50 м.
Вид битрейта : Постоянный
Битрейт : 448 Кбит/сек
Каналы : 6 каналов
Расположение каналов : Front: L C R, Side: L R, LFE
Частота : 48,0 КГц
Битовая глубина : 16 бит
Метод сжатия : С потерями
Задержка видео : 32 мс.
Размер потока : 355 Мбайт (24%)
Заголовок : MVO | DD 5.1 @ 448 kbps
Язык : Russian
Default : Да
Forced : Да
Текст
Идентификатор : 3
Формат : UTF-8
Идентификатор кодека : S_TEXT/UTF8
Идентификатор кодека/Информация : UTF-8 Plain Text
Язык : English
Default : Нет
Forced : Нет

Скриншоты


[Профиль] [ЛС]
Кто просматривает тему:

Форум Тема Автор Размер
Viasat History Viasat History: Охота на ведьм: столетие убийств / Witch Hunt A Century of Murder [серии 1-2 из 2] (Chris Holt) [2015 г., Документально-постановчный, история, SATRip] skorpionN 1.25 GB
RPG Ведьмак 3: Дикая Охота / The Witcher 3: Wild Hunt - Game of the Year Edition [v 1.31 + 18 DLC] (2015) PC | Repack от xatab Russian Mafia 31.1 GB
RPG Ведьмак 3: Дикая Охота / The Witcher 3: Wild Hunt - Game of the Year Edition [v 1.31 + 18 DLC] (2015) PC | Лицензия Russian Mafia 36.99 GB
RPG Ведьмак 3: Дикая Охота / The Witcher 3: Wild Hunt - Game of the Year Edition [v 1.31] (2015) PC | RePack от VickNet Russian Mafia 29.6 GB
RPG Ведьмак 3: Дикая Охота / The Witcher 3: Wild Hunt - Game of the Year Edition [v.1.31 + DLC] (2015) PC | RePack от =nemos= Russian Mafia 33.55 GB
RPG Ведьмак 3: Дикая Охота / The Witcher 3: Wild Hunt - Game of the Year Edition [v.1.31 + DLC] (2015) PC | RePack от FitGirl достали все 27.3 GB
R.G.TorrentFilm Video Горячие парни (Выпуски 1-4 из 4) (Охота и рыбалка) [2002 г., Pыбалка, TVRip] Один 777 1.17 GB
Документальные HD Группа А: Охота на Шпионов (Александр Сидоров) [2015, Документальный, HDTV 720p] TorrentFilm 1.29 GB
Показать сообщения:    

Текущее время: Сегодня 06:06

Часовой пояс: GMT



Вы не можете начинать темы
Вы не можете отвечать на сообщения
Вы не можете редактировать свои сообщения
Вы не можете удалять свои сообщения
Вы не можете голосовать в опросах
Вы не можете прикреплять файлы к сообщениям
Вы не можете скачивать файлы