Охота на работу / Get a Job (2016) WEB-DLRip | L

 
Автор Сообщение

достали все ®

Пол:

Стаж: 1 год 8 месяцев

Сообщений: 6585



Награды: 12 (Подробнее)

Top Releaser 3 (Количество: 1) Mega Seeder 3 (Количество: 1) За внесенный вклад в развитие сайта (Количество: 1)
Торрент-статистика

Создавать темы 01-Май-2016 17:55

[Цитировать]

Информация о фильме
Название: Охота на работу
Оригинальное название: Get a Job
Год выпуска: 2016
Жанр: Комедия
Режиссер: Дилан Кидд
В ролях: Элисон Бри, Анна Кендрик, Брайан Крэнстон, Майлз Теллер, Николас Браун, Марша Гей Харден, Кристофер Минц-Плассе, Джон К. МакГинли, Хорхе Гарсиа, Рави Патель
О фильме:
Сюжет ленты строится вокруг выпускника колледжа и его друзей. Молодые специалисты стоят на распутье, чем заниматься, зачем и тому ли они учились. В стране Экономический кризис, а молодежь хочет отрываться.

Страна: США
Студия: CBS Films, Double Feature Films
Продолжительность: 01:22:46
Перевод: Любительский многоголосый [Paradox & Omskbird records]
Файл
Формат: AVI
Качество: WEB-DLRip
Видео: XviD, 720x400, 23.976 fps, 2119 kbps
Аудио: AC3, 2 ch, 384 kbps
[

Скриншоты

MediaInfo:

Общее
Полное имя : Get.a.Job.2016.WEB-DLRip.1450MB.MegaPeer.avi
Формат : AVI
Формат/Информация : Audio Video Interleave
Размер файла : 1,45 Гбайт
Продолжительность : 1 ч. 22 м.
Общий поток : 2513 Кбит/сек
Программа кодирования : VirtualDubMod 1.5.10.3 | www.virtualdub-fr.org || (build 2550/release)
Библиотека кодирования : VirtualDubMod build 2550/release
Видео
Идентификатор : 0
Формат : MPEG-4 Visual
Профиль формата : Advanced Simple@L5
Параметр BVOP формата : 1
Параметр QPel формата : Нет
Параметр GMC формата : Без точки перехода
Параметр матрицы формата : Выборочная
Идентификатор кодека : XVID
Идентификатор кодека/Подсказка : XviD
Продолжительность : 1 ч. 22 м.
Битрейт : 2119 Кбит/сек
Ширина : 720 пикселей
Высота : 400 пикселей
Соотношение сторон : 16:9
Частота кадров : 23,976 (23976/1000) кадра/сек
Цветовое пространство : YUV
Субдискретизация насыщенности : 4:2:0
Битовая глубина : 8 бит
Тип развёртки : Прогрессивная
Метод сжатия : С потерями
Бит/(Пиксели*Кадры) : 0.307
Размер потока : 1,23 Гбайт (84%)
Библиотека кодирования : XviD 73
Аудио
Идентификатор : 1
Формат : AC-3
Формат/Информация : Audio Coding 3
Расширение режима : CM (complete main)
Параметр Endianness формата : Big
Идентификатор кодека : 2000
Продолжительность : 1 ч. 22 м.
Вид битрейта : Постоянный
Битрейт : 384 Кбит/сек
Каналы : 2 канала
Расположение каналов : Front: L R
Частота : 48,0 КГц
Частота кадров : 31,250 кадров/сек (1536 spf)
Метод сжатия : С потерями
Размер потока : 227 Мбайт (15%)
Выравнивание : Разделение по промежуткам
Продолжительность промежутка : 42 мс. (1,00 видеокадр)
Время предзагрузки промежутка : 500 мс.
[Профиль] [ЛС]
Кто просматривает тему:

Форум Тема Автор Размер
Viasat History Viasat History: Охота на ведьм: столетие убийств / Witch Hunt A Century of Murder [серии 1-2 из 2] (Chris Holt) [2015 г., Документально-постановчный, история, SATRip] skorpionN 1.25 GB
RPG Ведьмак 3: Дикая Охота / The Witcher 3: Wild Hunt - Game of the Year Edition [v 1.31 + 18 DLC] (2015) PC | Repack от xatab Russian Mafia 31.1 GB
RPG Ведьмак 3: Дикая Охота / The Witcher 3: Wild Hunt - Game of the Year Edition [v 1.31 + 18 DLC] (2015) PC | Лицензия Russian Mafia 36.99 GB
RPG Ведьмак 3: Дикая Охота / The Witcher 3: Wild Hunt - Game of the Year Edition [v 1.31] (2015) PC | RePack от VickNet Russian Mafia 29.6 GB
RPG Ведьмак 3: Дикая Охота / The Witcher 3: Wild Hunt - Game of the Year Edition [v.1.31 + DLC] (2015) PC | RePack от =nemos= Russian Mafia 33.55 GB
RPG Ведьмак 3: Дикая Охота / The Witcher 3: Wild Hunt - Game of the Year Edition [v.1.31 + DLC] (2015) PC | RePack от FitGirl достали все 27.3 GB
R.G.TorrentFilm Video Горячие парни (Выпуски 1-4 из 4) (Охота и рыбалка) [2002 г., Pыбалка, TVRip] Один 777 1.17 GB
Документальные HD Группа А: Охота на Шпионов (Александр Сидоров) [2015, Документальный, HDTV 720p] TorrentFilm 1.29 GB
Показать сообщения:    

Текущее время: Сегодня 08:03

Часовой пояс: GMT



Вы не можете начинать темы
Вы не можете отвечать на сообщения
Вы не можете редактировать свои сообщения
Вы не можете удалять свои сообщения
Вы не можете голосовать в опросах
Вы не можете прикреплять файлы к сообщениям
Вы не можете скачивать файлы