Охота на монстра / Monster Hunt (2015) BDRip 1080p | 3D-Video | L2

 
Автор Сообщение

достали все ®

Пол:

Стаж: 1 год 11 месяцев

Сообщений: 6800



Награды: 12 (Подробнее)

Mega Seeder 4 (Количество: 1) За внесенный вклад в развитие сайта (Количество: 1) Mega Seeder 5 (Количество: 1)
Торрент-статистика

Создавать темы 23-Окт-2015 21:38

[Цитировать]

-Охота на монстра / Monster Hunt- Информация о фильме
Название: Охота на монстра
Оригинальное название: Monster Hunt
Год выхода: 2015
Жанр: фэнтези, боевик, комедия
Режиссер: Раман Хюи
Сценарий: Алань Юйэнь / Alan Yuen
Продюсер: Чунг Мэн Йи, Алань Юйэнь, Йуан Каи, Джессика Чен, Мэн Кеи Чин, Уильям Конг, Хань Чжан / Chung Man Yee, Alan Yuen, Yuan Cai, Jessica Chen, Man Kei Chin, William Kong, Han Zhang
Оператор: Энтони Пунь / Anthony Pun
Композитор: Леон Ко / Leon Ko
Художник: Кхинь-вай Ли, Иохэй Танэда, Чунг Мэн Йи / Kin-wai Lee, Yohei Taneda, Chung Man Yee
Монтаж: Ка-Фай Чунг / Ka-Fai Cheung
В ролях: Тан Вэй, Сюэ Бай, Эрик Цан, Цзин Божань, У Цзян, Яо Чэнь, Уоллес Чунг, Го Сяодун, Сандра Нг, Ни Янь
Описание:
Когда-то давно люди и монстры мирно сосуществовали в одном мире. Но из-за жадности одних, другие были практически полностью истреблены и навеки изгнаны из прекрасного солнечного мира. И вот спустя несколько тысячелетий людская жадность вновь привела к Великой войне.
Однажды обычный парень Тхен Инь был очарован прекрасным монстром. После чего он неожиданно для себя понял, что забеременел! И родился у него и у его новоиспечённой «жены» малыш — будущий король монстров. Назвали его ХуБа. Теперь странноватой парочке придётся защитить свою кровиночку от злых демонов и не менее злых людей. Ведь жестокий и алчный Лорд Гэ решил покорить короля демонов, чтобы обрести безмерную силу. Ради спасения малыша вся семья отправляется в долгое путешествие в поисках места, где они смогут быть счастливы…

Знаете ли Вы, что...

★ Первоначально на одну из главных ролей в фильме был взят Кай Ко, и полностью весь фильм (с бюджетом в 40 миллионов долларов) был отснят с этим актером, после чего произошел инцидент — Кая Ко и сына Джеки Чана, Джейси Чана, арестовали за марихуану, за что Каю Ко было запрещено работать в кино. В результате создателям фильма пришлось потратить дополнительно 12 миллионов долларов, чтобы переснять практически весь фильм уже с другим актером.
Премьера (мир): 16 июля 2015
Премьера (РФ): 10 декабря 2015

Страна: Китай, Гонконг
Продолжительность: 01:57:04
Перевод: Любительский двухголосый + Китайский (Оригинал)
Файл
Кодек: H.264 (AVC)
Качество: BDRip 1080p
Видео: MPEG-4 AVC, 12.0 Mbps, 1920x1080
Аудио #1: Rus - AC3 / 6 channels/448 Kbps / 48.0 KHz
Аудио #2: Chinese - AC3 / 6 channels / 640 Kbps / 48.0 KHz

Скриншоты



MediaInfo

Format : Matroska
Format version : Version 2
File size : 10.7 GiB
Duration : 1h 57mn
Overall bit rate : 13.0 Mbps
Movie name : Monster.Hunt.2015.3D.H-SBS.[torrent3d.ru]
Encoded date : UTC 2015-10-19 23:39:15
Writing application : mkvmerge v4.0.0 ('The Stars were mine') сборка от Jun 6 2010 16:18:42
Writing library : libebml v1.0.0 + libmatroska v1.0.0
Video
ID : 1
Format : AVC
Format/Info : Advanced Video Codec
Format profile : High@L4.1
Format settings, CABAC : Yes
Format settings, ReFrames : 4 frames
Codec ID : V_MPEG4/ISO/AVC
Duration : 1h 57mn
Bit rate : 12.0 Mbps
Width : 1 920 pixels
Height : 1 080 pixels
Display aspect ratio : 16:9
Frame rate mode : Constant
Frame rate : 23.976 fps
Color space : YUV
Chroma subsampling : 4:2:0
Bit depth : 8 bits
Scan type : Progressive
Bits/(Pixel*Frame) : 0.241
Stream size : 9.57 GiB (90%)
Writing library : x264 core 133 r2334 a3ac64b
Encoding settings : cabac=1 / ref=4 / deblock=1:-3:-3 / analyse=0x3:0x133 / me=umh / subme=11 / psy=1 / psy_rd=1.05:0.10 / mixed_ref=1 / me_range=64 / chroma_me=1 / trellis=2 / 8x8dct=1 / cqm=0 / deadzone=21,11 / fast_pskip=0 / chroma_qp_offset=-3 / threads=12 / lookahead_threads=2 / sliced_threads=0 / nr=0 / decimate=1 / interlaced=0 / bluray_compat=0 / constrained_intra=0 / bframes=8 / b_pyramid=2 / b_adapt=2 / b_bias=0 / direct=3 / weightb=1 / open_gop=0 / weightp=2 / keyint=250 / keyint_min=23 / scenecut=40 / intra_refresh=0 / rc_lookahead=80 / rc=2pass / mbtree=1 / bitrate=12000 / ratetol=1.0 / qcomp=0.60 / qpmin=0 / qpmax=69 / qpstep=4 / cplxblur=20.0 / qblur=0.5 / vbv_maxrate=40000 / vbv_bufsize=30000 / nal_hrd=none / ip_ratio=1.40 / aq=1:0.80
Default : No
Forced : No
Audio #1
ID : 2
Format : AC-3
Format/Info : Audio Coding 3
Mode extension : CM (complete main)
Format settings, Endianness : Big
Codec ID : A_AC3
Duration : 1h 57mn
Bit rate mode : Constant
Bit rate : 448 Kbps
Channel(s) : 6 channels
Channel positions : Front: L C R, Side: L R, LFE
Sampling rate : 48.0 KHz
Compression mode : Lossy
Stream size : 375 MiB (3%)
Language : Russian
Default : Yes
Forced : Yes
Audio #2
ID : 3
Format : AC-3
Format/Info : Audio Coding 3
Mode extension : CM (complete main)
Format settings, Endianness : Big
Codec ID : A_AC3
Duration : 1h 57mn
Bit rate mode : Constant
Bit rate : 640 Kbps
Channel(s) : 6 channels
Channel positions : Front: L C R, Side: L R, LFE
Sampling rate : 48.0 KHz
Compression mode : Lossy
Stream size : 536 MiB (5%)
Language : Chinese
Default : No
Forced : No
[Профиль] [ЛС]
Кто просматривает тему:

Форум Тема Автор Размер
Viasat History Viasat History: Охота на ведьм: столетие убийств / Witch Hunt A Century of Murder [серии 1-2 из 2] (Chris Holt) [2015 г., Документально-постановчный, история, SATRip] skorpionN 1.25 GB
RPG Ведьмак 3: Дикая Охота / The Witcher 3: Wild Hunt - Game of the Year Edition [v 1.31 + 18 DLC] (2015) PC | Repack от xatab Russian Mafia 31.1 GB
RPG Ведьмак 3: Дикая Охота / The Witcher 3: Wild Hunt - Game of the Year Edition [v 1.31 + 18 DLC] (2015) PC | Лицензия Russian Mafia 36.99 GB
RPG Ведьмак 3: Дикая Охота / The Witcher 3: Wild Hunt - Game of the Year Edition [v 1.31] (2015) PC | RePack от VickNet Russian Mafia 29.6 GB
RPG Ведьмак 3: Дикая Охота / The Witcher 3: Wild Hunt - Game of the Year Edition [v.1.31 + DLC] (2015) PC | RePack от =nemos= Russian Mafia 33.55 GB
RPG Ведьмак 3: Дикая Охота / The Witcher 3: Wild Hunt - Game of the Year Edition [v.1.31 + DLC] (2015) PC | RePack от FitGirl достали все 27.3 GB
R.G.TorrentFilm Video Горячие парни (Выпуски 1-4 из 4) (Охота и рыбалка) [2002 г., Pыбалка, TVRip] Один 777 1.17 GB
Документальные HD Группа А: Охота на Шпионов (Александр Сидоров) [2015, Документальный, HDTV 720p] TorrentFilm 1.29 GB
Показать сообщения:    

Текущее время: Сегодня 02:29

Часовой пояс: GMT



Вы не можете начинать темы
Вы не можете отвечать на сообщения
Вы не можете редактировать свои сообщения
Вы не можете удалять свои сообщения
Вы не можете голосовать в опросах
Вы не можете прикреплять файлы к сообщениям
Вы не можете скачивать файлы