Охота на зверя / Belly Of The Beast (2003) BDRip 1080p | P2

 
Автор Сообщение

sergej644 ®

Пол:

Стаж: 4 года 11 месяцев

Сообщений: 6046

Откуда: Soviet Union



Награды: Нет

Торрент-статистика

Создавать темы 31-Окт-2014 11:24

[Цитировать]

Информация о фильме
Название: Охота на зверя
Оригинальное: Belly of the Beast
Год выхода: 2003
Выпущено: Century Time (H.K.) Ltd., GFT Beast Films Inc.
Страна: Канада, Гонконг, Великобритания
Жанр: Боевик
Продолжительность: 01:31:18
Перевод: Профессиональный двухголосый
Режиссер: Сиу-Тунг Чинг
В ролях: Стивен Сигал, Байрон Манн, Моника Ло, Том Ву, Сара Малакул Лэйн, Патрик Робинсон, Винсент Риотта, Чау Сиу Танг, Кеворк Маликян, Понгпат Вачирабунджонг, Аластер Варди, Энди Адам, Шакрит Ямнарм, Макс Руддок, Мартин МакДугалл, Николас Рошетт, Йен Робисан, Колин Стинтон, Ваннакит Сириопут, Дон Фергюсон, Эрик Маркус Шуетз
-Сюжет фильма
В сердце экзотического Таиланда американка Джессика Хоппер и ее подруга, дочь сенатора, становятся заложницами жестокой экстремистской группировки. Бандиты убьют девушек, если не будут выполнены их требования, и отец Джессики понимает, что медлить нельзя. Джейк Хоппер, бывший агент ЦРУ и мастер боевых искусств, и его верный напарник объявляют войну бандитам, не подозревая, что оказались в центре паутины хитроумного заговора, в котором переплелись смерть и коварное предательство, древняя восточная мистика и могущественное колдовство.-Файл
Кодек: x264
Формат: MKV
Качество: BDRip 1080p (Источник: Blu-ray)
Видео: MPEG-4 AVC (1.85:1) 1920x1040 pix, 23.976 fps, 11276 kbps, 0.236 Bits/Pixel
Аудио I: Dolby Digital (5.1) 16 bit, 48 kHz, 448 kbps (DVO "R5")
Аудио II: Dolby Digital (2.0) 16 bit, 48 kHz, 448 kbps (ENG "Original")
Субтитры: SRT Английские
Меню: Сохранены оригинальные чаптеры Blu-ray

MI & x264

x264 [info]: frame I:916 Avg QP:17.75 size:194877
x264 [info]: frame P:26621 Avg QP:20.30 size: 99169
x264 [info]: frame B:103815 Avg QP:22.35 size: 47202-General
Unique ID : 186118293139932705116510169543043157411 (0x8C05145345DD80E9864C5B58603F8DA3)
Format : Matroska
Format version : Version 2
File size : 7.76 GiB
Duration : 1h 31mn
Overall bit rate : 12.2 Mbps
Movie name : Охота на зверя (2003) BDRip (1080p)
Encoded date : UTC 2014-10-21 04:17:57
Writing application : mkvmerge v5.8.0 ('No Sleep / Pillow') built on Sep 2 2012 15:37:04
Writing library : libebml v1.2.3 + libmatroska v1.3.0
Video
ID : 1
Format : AVC
Format/Info : Advanced Video Codec
Format profile : High@L4.1
Format settings, CABAC : Yes
Format settings, ReFrames : 4 frames
Codec ID : V_MPEG4/ISO/AVC
Bit rate : 11.3 Mbps
Width : 1 920 pixels
Height : 1 040 pixels
Display aspect ratio : 1.85:1
Frame rate mode : Variable
Original frame rate : 23.976 fps
Color space : YUV
Chroma subsampling : 4:2:0
Bit depth : 8 bits
Scan type : Progressive
Bits/(Pixel*Frame) : 0.236
Title : Release by Alex260680
Writing library : x264 core 142 r2479 dd79a61
Encoding settings : cabac=1 / ref=4 / deblock=1:-3:-3 / analyse=0x3:0x133 / me=umh / subme=11 / psy=1 / psy_rd=1.00:0.05 / mixed_ref=1 / me_range=32 / chroma_me=1 / trellis=2 / 8x8dct=1 / cqm=0 / deadzone=21,11 / fast_pskip=0 / chroma_qp_offset=-3 / threads=6 / lookahead_threads=1 / sliced_threads=0 / nr=0 / decimate=0 / interlaced=0 / bluray_compat=0 / constrained_intra=0 / bframes=6 / b_pyramid=2 / b_adapt=2 / b_bias=0 / direct=3 / weightb=1 / open_gop=0 / weightp=2 / keyint=240 / keyint_min=23 / scenecut=40 / intra_refresh=0 / rc=2pass / mbtree=0 / bitrate=11276 / ratetol=1.0 / qcomp=0.60 / qpmin=0 / qpmax=69 / qpstep=4 / cplxblur=20.0 / qblur=0.5 / ip_ratio=1.40 / pb_ratio=1.30 / aq=1:0.70
Language : English
Default : Yes
Forced : No
Audio #1
ID : 2
Format : AC-3
Format/Info : Audio Coding 3
Mode extension : CM (complete main)
Format settings, Endianness : Big
Codec ID : A_AC3
Duration : 1h 31mn
Bit rate mode : Constant
Bit rate : 448 Kbps
Channel(s) : 6 channels
Channel positions : Front: L C R, Side: L R, LFE
Sampling rate : 48.0 KHz
Bit depth : 16 bits
Compression mode : Lossy
Stream size : 293 MiB (4%)
Title : DVO (R5)
Language : Russian
Default : Yes
Forced : No
Audio #2
ID : 3
Format : AC-3
Format/Info : Audio Coding 3
Mode extension : CM (complete main)
Format settings, Endianness : Big
Codec ID : A_AC3
Duration : 1h 31mn
Bit rate mode : Constant
Bit rate : 448 Kbps
Channel(s) : 2 channels
Channel positions : Front: L R
Sampling rate : 48.0 KHz
Bit depth : 16 bits
Compression mode : Lossy
Stream size : 293 MiB (4%)
Title : Original
Language : English
Default : No
Forced : No
Text
ID : 4
Format : UTF-8
Codec ID : S_TEXT/UTF8
Codec ID/Info : UTF-8 Plain Text
Language : English
Default : No
Forced : No
Menu
00:00:00.000 : en:Chapter 01
00:06:00.485 : en:Chapter 02
00:11:47.874 : en:Chapter 03
00:17:42.937 : en:Chapter 04
00:24:07.613 : en:Chapter 05
00:29:19.424 : en:Chapter 06
00:34:03.625 : en:Chapter 07
00:38:46.991 : en:Chapter 08
00:45:10.833 : en:Chapter 09
00:49:54.533 : en:Chapter 10
00:55:42.172 : en:Chapter 11
00:59:56.843 : en:Chapter 12
01:04:22.650 : en:Chapter 13
01:10:00.154 : en:Chapter 14
01:14:45.856 : en:Chapter 15
01:20:12.558 : en:Chapter 16
--
[Профиль] [ЛС]
Кто просматривает тему:

Форум Тема Автор Размер
Viasat History Viasat History: Охота на ведьм: столетие убийств / Witch Hunt A Century of Murder [серии 1-2 из 2] (Chris Holt) [2015 г., Документально-постановчный, история, SATRip] skorpionN 1.25 GB
RPG Ведьмак 3: Дикая Охота / The Witcher 3: Wild Hunt - Game of the Year Edition [v 1.31 + 18 DLC] (2015) PC | Repack от xatab Russian Mafia 31.1 GB
RPG Ведьмак 3: Дикая Охота / The Witcher 3: Wild Hunt - Game of the Year Edition [v 1.31 + 18 DLC] (2015) PC | Лицензия Russian Mafia 36.99 GB
RPG Ведьмак 3: Дикая Охота / The Witcher 3: Wild Hunt - Game of the Year Edition [v 1.31] (2015) PC | RePack от VickNet Russian Mafia 29.6 GB
RPG Ведьмак 3: Дикая Охота / The Witcher 3: Wild Hunt - Game of the Year Edition [v.1.31 + DLC] (2015) PC | RePack от =nemos= Russian Mafia 33.55 GB
RPG Ведьмак 3: Дикая Охота / The Witcher 3: Wild Hunt - Game of the Year Edition [v.1.31 + DLC] (2015) PC | RePack от FitGirl достали все 27.3 GB
R.G.TorrentFilm Video Горячие парни (Выпуски 1-4 из 4) (Охота и рыбалка) [2002 г., Pыбалка, TVRip] Один 777 1.17 GB
Документальные HD Группа А: Охота на Шпионов (Александр Сидоров) [2015, Документальный, HDTV 720p] TorrentFilm 1.29 GB
Показать сообщения:    

Текущее время: Сегодня 16:56

Часовой пояс: GMT



Вы не можете начинать темы
Вы не можете отвечать на сообщения
Вы не можете редактировать свои сообщения
Вы не можете удалять свои сообщения
Вы не можете голосовать в опросах
Вы не можете прикреплять файлы к сообщениям
Вы не можете скачивать файлы