Охота жить (Сергей Никоненко) [2014 г., Комедия, WEB-DLRip]

 
Автор Сообщение

Один 777 ®

Пол:

Стаж: 1 год 8 месяцев

Сообщений: 456

Откуда: Луцк



Награды: 7 (Подробнее)

За внесенный вклад в развитие сайта (Количество: 1) Mega Seeder 3 (Количество: 1) Mega Seeder 4 (Количество: 1)
Торрент-статистика

Создавать темы 05-Сен-2016 08:34

[Цитировать]

Охота жить
Год выпуска: 2014
Страна: Россия / TRI A Film Production Company
Жанр: Комедия
Продолжительность: 01:20:43
Субтитры: нет
Режиссер: Сергей Никоненко
В ролях: Станислав Любшин, Нина Усатова, Сергей Никоненко, Валерий Баринов, Александр Гундарев, Алексей Крыченков, Алла Мещерякова, Павел Сборщиков, Юрий Бердников...
Описание: Когда приходит осень жизни, люди начинают задумываться о прожитом. Для кого-то остаток жизни - «словно обглоданный мосол под крыльцом», кто-то мечтает о билетике на второй сеанс - родиться еще разок, а кому-то просто охота жить…
Дополнительная информация: Комедия по рассказам Василия Шукшина «Охота жить», «Билетик на второй сеанс» и «Осенью». Деревенская история из начала 1970-х годов - о человеческих взаимоотношениях и том, как по-разному люди переживают наступление «осени жизни».

Сэмпл: http://sendfile.su/1263008

Присутствует реклама!!!
Качество: WEB-DLRip
Формат: AVI
Видео кодек: XviD
Аудио кодек: МР3
Видео: 640x352 (1.82:1), 25 fps, XviD build 73 ~1148 kbps avg, 0.20 bit/pixel
Аудио: 48 kHz, MPEG Layer 3, 2 ch, ~128.00 kbps avg

MediaInfo

Общее
Полное имя : D:\Ohota.gyt'.2014.WEB-DLRip.740.[Один 777].avi
Формат : AVI
Формат/Информация : Audio Video Interleave
Размер файла : 743 Мбайт
Продолжительность : 1 ч. 20 м.
Общий поток : 1287 Кбит/сек
Программа кодирования : VirtualDubMod 1.5.10.3 | www.virtualdub-fr.org || (build 2550/release)
Библиотека кодирования : VirtualDubMod build 2550/release
Видео
Идентификатор : 0
Формат : MPEG-4 Visual
Профиль формата : Advanced Simple@L5
Параметр BVOP формата : 1
Параметр QPel формата : Нет
Параметр GMC формата : Без точки перехода
Параметр матрицы формата : Default (H.263)
Идентификатор кодека : XVID
Идентификатор кодека/Подсказка : XviD
Продолжительность : 1 ч. 20 м.
Битрейт : 1149 Кбит/сек
Ширина : 640 пикселей
Высота : 352 пикселя
Соотношение сторон : 16:9
Частота кадров : 25,000 кадров/сек
Цветовое пространство : YUV
Субдискретизация насыщенности : 4:2:0
Битовая глубина : 8 бит
Тип развёртки : Прогрессивная
Метод сжатия : С потерями
Бит/(Пиксели*Кадры) : 0.204
Размер потока : 663 Мбайт (89%)
Библиотека кодирования : XviD 73
Аудио
Идентификатор : 1
Формат : MPEG Audio
Версия формата : Version 1
Профиль формата : Layer 3
Идентификатор кодека : 55
Идентификатор кодека/Подсказка : MP3
Продолжительность : 1 ч. 20 м.
Вид битрейта : Постоянный
Битрейт : 128 Кбит/сек
Каналы : 2 канала
Частота : 48,0 КГц
Метод сжатия : С потерями
Размер потока : 73,9 Мбайт (10%)
Выравнивание : Соединение по промежуткам
Продолжительность промежутка : 40 мс. (1,00 видеокадр)
Время предзагрузки промежутка : 504 мс.
Библиотека кодирования : LAME3.99r
Настройки программы : -m s -V 4 -q 2 -lowpass 17 -b 128

Скриншот c названием фильма

Скриншоты

[Профиль] [ЛС]
Кто просматривает тему:

Форум Тема Автор Размер
Viasat History Viasat History: Охота на ведьм: столетие убийств / Witch Hunt A Century of Murder [серии 1-2 из 2] (Chris Holt) [2015 г., Документально-постановчный, история, SATRip] skorpionN 1.25 GB
RPG Ведьмак 3: Дикая Охота / The Witcher 3: Wild Hunt - Game of the Year Edition [v 1.31 + 18 DLC] (2015) PC | Repack от xatab Russian Mafia 31.1 GB
RPG Ведьмак 3: Дикая Охота / The Witcher 3: Wild Hunt - Game of the Year Edition [v 1.31 + 18 DLC] (2015) PC | Лицензия Russian Mafia 36.99 GB
RPG Ведьмак 3: Дикая Охота / The Witcher 3: Wild Hunt - Game of the Year Edition [v 1.31] (2015) PC | RePack от VickNet Russian Mafia 29.6 GB
RPG Ведьмак 3: Дикая Охота / The Witcher 3: Wild Hunt - Game of the Year Edition [v.1.31 + DLC] (2015) PC | RePack от =nemos= Russian Mafia 33.55 GB
RPG Ведьмак 3: Дикая Охота / The Witcher 3: Wild Hunt - Game of the Year Edition [v.1.31 + DLC] (2015) PC | RePack от FitGirl достали все 27.3 GB
R.G.TorrentFilm Video Горячие парни (Выпуски 1-4 из 4) (Охота и рыбалка) [2002 г., Pыбалка, TVRip] Один 777 1.17 GB
Документальные HD Группа А: Охота на Шпионов (Александр Сидоров) [2015, Документальный, HDTV 720p] TorrentFilm 1.29 GB
Показать сообщения:    

Текущее время: Сегодня 13:43

Часовой пояс: GMT



Вы не можете начинать темы
Вы не можете отвечать на сообщения
Вы не можете редактировать свои сообщения
Вы не можете удалять свои сообщения
Вы не можете голосовать в опросах
Вы не можете прикреплять файлы к сообщениям
Вы не можете скачивать файлы