Охота жить (Сергей Никоненко) [2014 г., Комедия, WEB-DLRip]

 
Автор Сообщение

Один 777 ®

Пол:

Стаж: 2 года 3 месяца

Сообщений: 503

Откуда: Луцк



Награды: 7 (Подробнее)

Mega Seeder 3 (Количество: 1) Mega Seeder 4 (Количество: 1) Mega Releaser 2 (Количество: 1)
Торрент-статистика

Создавать темы 05-Сен-2016 07:57

[Цитировать]

Охота жить
Год выпуска: 2014
Страна: Россия / TRI A Film Production Company
Жанр: Комедия
Продолжительность: 01:20:43
Субтитры: нет
Режиссер: Сергей Никоненко
В ролях: Станислав Любшин, Нина Усатова, Сергей Никоненко, Валерий Баринов, Александр Гундарев, Алексей Крыченков, Алла Мещерякова, Павел Сборщиков, Юрий Бердников...
Описание: Когда приходит осень жизни, люди начинают задумываться о прожитом. Для кого-то остаток жизни - «словно обглоданный мосол под крыльцом», кто-то мечтает о билетике на второй сеанс - родиться еще разок, а кому-то просто охота жить…
Дополнительная информация: Комедия по рассказам Василия Шукшина «Охота жить», «Билетик на второй сеанс» и «Осенью». Деревенская история из начала 1970-х годов - о человеческих взаимоотношениях и том, как по-разному люди переживают наступление «осени жизни».

Сэмпл: http://sendfile.su/1263000

Присутствует реклама!!!
Качество: WEB-DLRip
Формат: AVI
Видео кодек: XviD
Аудио кодек: AC3
Видео: 720x400 (1.80:1), 25 fps, XviD build 73 ~2414 kbps avg, 0.34 bit/pixel
Аудио: 48 kHz, AC3 Dolby Digital, 2/0 (L,R) ch, ~192 kbps

MediaInfo

Общее
Полное имя : D:\Ohota.gyt'.2014.WEB-DLRip.1400.[Один 777].avi
Формат : AVI
Формат/Информация : Audio Video Interleave
Размер файла : 1,48 Гбайт
Продолжительность : 1 ч. 20 м.
Общий поток : 2616 Кбит/сек
Программа кодирования : VirtualDubMod 1.5.10.3 | www.virtualdub-fr.org || (build 2550/release)
Библиотека кодирования : VirtualDubMod build 2550/release
Видео
Идентификатор : 0
Формат : MPEG-4 Visual
Профиль формата : Advanced Simple@L5
Параметр BVOP формата : 1
Параметр QPel формата : Нет
Параметр GMC формата : Без точки перехода
Параметр матрицы формата : Default (H.263)
Идентификатор кодека : XVID
Идентификатор кодека/Подсказка : XviD
Продолжительность : 1 ч. 20 м.
Битрейт : 2415 Кбит/сек
Ширина : 720 пикселей
Высота : 400 пикселей
Соотношение сторон : 16:9
Частота кадров : 25,000 кадров/сек
Цветовое пространство : YUV
Субдискретизация насыщенности : 4:2:0
Битовая глубина : 8 бит
Тип развёртки : Прогрессивная
Метод сжатия : С потерями
Бит/(Пиксели*Кадры) : 0.335
Размер потока : 1,36 Гбайт (92%)
Библиотека кодирования : XviD 73
Аудио
Идентификатор : 1
Формат : AC-3
Формат/Информация : Audio Coding 3
Расширение режима : CM (complete main)
Параметр Endianness формата : Big
Идентификатор кодека : 2000
Продолжительность : 1 ч. 20 м.
Вид битрейта : Постоянный
Битрейт : 192 Кбит/сек
Каналы : 2 канала
Расположение каналов : Front: L R
Частота : 48,0 КГц
Частота кадров : 31,250 кадров/сек (1536 spf)
Метод сжатия : С потерями
Размер потока : 111 Мбайт (7%)
Выравнивание : Разделение по промежуткам
Продолжительность промежутка : 40 мс. (1,00 видеокадр)
Время предзагрузки промежутка : 500 мс.

Скриншот c названием фильма

Скриншоты

[Профиль] [ЛС]
Показать сообщения:    

Текущее время: Сегодня 09:03

Часовой пояс: GMT



Вы не можете начинать темы
Вы не можете отвечать на сообщения
Вы не можете редактировать свои сообщения
Вы не можете удалять свои сообщения
Вы не можете голосовать в опросах
Вы не можете прикреплять файлы к сообщениям
Вы не можете скачивать файлы