От семи лет и выше / The Seven-Ups (1973) BDRip 720p от ivandubskoj | A

 
Автор Сообщение

Russian Mafia ®

Пол:

Стаж: 1 год 8 месяцев

Сообщений: 4256



Награды: 10 (Подробнее)

Top Releaser 4 (Количество: 1) Mega Seeder 1 (Количество: 1) Top Releaser 5 (Количество: 1)
Торрент-статистика

Создавать темы 23-Мар-2016 12:24

[Цитировать]

Информация о фильме
Название: От семи лет и выше
Оригинальное название: The Seven-Ups
Год выхода: 1973
Жанр: Боевик, драма, криминал, гангстерский
Режиссёр: Филип Д'Антони
В ролях: Рой Шайдер, Виктор Арнольд, Джерри Леон, Кен Керчевал, Тони Ло Бьянко, Ларри Хайнс, Ричард Линч, Билл Хикман, Лу Полан, Мэтт Руссо, Джо Спинелл, Роберт Барр, Рекс Эверхарт, Дэвид Уилсон, Эд Джордан, Мэри Мультари, Фрэнк Мацетта, Фрэнсис Чейни, Майк Трианор, Бенни Марино, Билл Фунаро, Билл Лонго, Эйс Аланья, Шелдон Адлер, Эдвард Ф. Кэри, Джон Эпри, Джеффри Дж. Фелдер, Сонни Гроссо
О фильме: Бадди Мануччи возглавляет группу крутых ребят, ведущих расследование похищений, организованных различными кланами мафии.

Выпущено: США, 20th Century Fox Film Corporation, Philip D'Antoni Productions Inc.
Продолжительность: 01:43:17
Перевод: Авторский одноголосый (Алексей Михалёв)
Оригинальная аудио-дорожка: Английская
Файл
Контейнер: MKV
Кодек: MPEG-4 AVC
Качество: BDRip [Исходник: Blu-ray Remux (1080p)]
Видео: MPEG-4 AVC, 1280x696 (1.85:1), 5682 Кбит/с, 23.976 кадр/с, 0.266 bit/pixel
Аудио #1: Русский, Dolby AC3, 192 Кбит/с, 2 канала (Стерео) - AVO [А. Михалёв]
Аудио #2: Английский, Dolby AC3, 192 Кбит/с, 1 канал (Моно) - Оригинал
Субтитры: Английские (Полные, SDH) SRT
Навигация по главам: Есть (Сохранены оригинальные чаптеры как на Blu-ray)

x264

x264 [info]: frame I:1034 Avg QP:17.21 size:124310
x264 [info]: frame P:29631 Avg QP:20.38 size: 47687
x264 [info]: frame B:117919 Avg QP:21.75 size: 23919
x264 [info]: consecutive B-frames: 1.9% 2.6% 5.7% 12.1% 11.9% 45.0% 8.4% 5.6%

MediaInfo

General
Unique ID : 177586163939548915293461836641155938346 (0x8599D9E0A42A77519F3DE30213AFF82A)
Complete name : The.Seven.Ups.1973.BDRip.720p.mkv
Format : Matroska
Format version : Version 4 / Version 2
File size : 4.38 GiB
Duration : 1h 43mn
Overall bit rate : 6 065 Kbps
Movie name : От семи лет и выше / The Seven-Ups (1973) BDRip 720p от ivandubskoj
Encoded date : UTC 2016-03-23 11:16:45
Writing application : mkvmerge v7.8.0 ('River Man') 64bit built on Mar 27 2015 16:31:37
Writing library : libebml v1.3.1 + libmatroska v1.4.2
Video
ID : 1
Format : AVC
Format/Info : Advanced Video Codec
Format profile : High@L4.1
Format settings, CABAC : Yes
Format settings, ReFrames : 9 frames
Codec ID : V_MPEG4/ISO/AVC
Duration : 1h 43mn
Bit rate : 5 682 Kbps
Width : 1 280 pixels
Height : 696 pixels
Display aspect ratio : 1.85:1
Frame rate mode : Constant
Frame rate : 23.976 fps
Color space : YUV
Chroma subsampling : 4:2:0
Bit depth : 8 bits
Scan type : Progressive
Bits/(Pixel*Frame) : 0.266
Stream size : 4.01 GiB (92%)
Title : От семи лет и выше / The Seven-Ups (1973)
Writing library : x264 core 146 r2538 121396c
Encoding settings : cabac=1 / ref=9 / deblock=1:-3:-3 / analyse=0x3:0x113 / me=umh / subme=11 / psy=1 / psy_rd=1.00:0.00 / mixed_ref=1 / me_range=32 / chroma_me=1 / trellis=2 / 8x8dct=1 / cqm=0 / deadzone=21,11 / fast_pskip=0 / chroma_qp_offset=-2 / threads=6 / lookahead_threads=1 / sliced_threads=0 / nr=0 / decimate=1 / interlaced=0 / bluray_compat=0 / constrained_intra=0 / bframes=8 / b_pyramid=2 / b_adapt=2 / b_bias=0 / direct=3 / weightb=1 / open_gop=0 / weightp=2 / keyint=240 / keyint_min=23 / scenecut=40 / intra_refresh=0 / rc_lookahead=60 / rc=2pass / mbtree=1 / bitrate=5682 / ratetol=1.0 / qcomp=0.60 / qpmin=0 / qpmax=69 / qpstep=4 / cplxblur=20.0 / qblur=0.5 / vbv_maxrate=50000 / vbv_bufsize=62500 / nal_hrd=none / filler=0 / ip_ratio=1.40 / aq=1:1.00
Language : English
Default : Yes
Forced : No
Audio #1
ID : 2
Format : AC-3
Format/Info : Audio Coding 3
Mode extension : CM (complete main)
Format settings, Endianness : Big
Codec ID : A_AC3
Duration : 1h 43mn
Bit rate mode : Constant
Bit rate : 192 Kbps
Channel(s) : 2 channels
Channel positions : Front: L R
Sampling rate : 48.0 KHz
Bit depth : 16 bits
Compression mode : Lossy
Stream size : 142 MiB (3%)
Title : AVO [А. Михалёв]
Language : Russian
Default : Yes
Forced : No
Audio #2
ID : 3
Format : AC-3
Format/Info : Audio Coding 3
Mode extension : CM (complete main)
Format settings, Endianness : Big
Codec ID : A_AC3
Duration : 1h 43mn
Bit rate mode : Constant
Bit rate : 192 Kbps
Channel(s) : 1 channel
Channel positions : Front: C
Sampling rate : 48.0 KHz
Bit depth : 16 bits
Compression mode : Lossy
Stream size : 142 MiB (3%)
Title : Original
Language : English
Default : No
Forced : No
Text
ID : 4
Format : UTF-8
Codec ID : S_TEXT/UTF8
Codec ID/Info : UTF-8 Plain Text
Title : Full [SDH]
Language : English
Default : No
Forced : No
Menu
00:00:00.000 : en:Chapter 1
00:07:02.964 : en:Chapter 2
00:11:34.360 : en:Chapter 3
00:15:59.125 : en:Chapter 4
00:25:10.342 : en:Chapter 5
00:32:21.189 : en:Chapter 6
00:41:00.625 : en:Chapter 7
00:48:14.350 : en:Chapter 8
00:53:55.065 : en:Chapter 9
01:04:24.569 : en:Chapter 10
01:11:17.023 : en:Chapter 11
01:16:49.688 : en:Chapter 12
01:21:14.536 : en:Chapter 13
01:29:55.765 : en:Chapter 14
01:38:56.555 : en:Chapter 15
01:42:08.039 : en:Chapter 16

Скриншоты



Автор рипа - ivandubskoj
[Профиль] [ЛС]
Кто просматривает тему:

Показать сообщения:    

Текущее время: Сегодня 18:33

Часовой пояс: GMT



Вы не можете начинать темы
Вы не можете отвечать на сообщения
Вы не можете редактировать свои сообщения
Вы не можете удалять свои сообщения
Вы не можете голосовать в опросах
Вы не можете прикреплять файлы к сообщениям
Вы не можете скачивать файлы