От Руси до России - Праздничный концерт (12.06.2015) HDTV [H.264/1080i]

 
Автор Сообщение

достали все ®

Пол:

Стаж: 1 год 8 месяцев

Сообщений: 6554



Награды: 12 (Подробнее)

Mega Seeder 2 (Количество: 1) Mega Seeder 3 (Количество: 1) Mega Seeder 4 (Количество: 1)
Торрент-статистика

Создавать темы 13-Июн-2015 11:13

[Цитировать]

-От Руси до России - Праздничный концерт (12.06.2015) HDTV[H.264/1080i]- Производство: Россия, ВГТРК, Россия HD
Жанр: Концерт
Описание:12 июня вся страна празднует День России – праздник, являющийся символом национального единения. В этом году концерт на главной площади столицы станет незабываемым событием. Зрителей ждет грандиозное зрелище: перед их глазами пройдет вся история России в современном визуальном воплощении.
Исторические события будут представлены через образы тех, кто прославил нашу родину в науке, медицине, театре, балете, кино, музыке, спорте, покорении космоса. Героями этого представления станут Менделеев и Станиславский, Уланова и Высоцкий, Харламов и Гагарин и многие другие истинные звезды России.
В программе праздничного концерта – выступление популярных артистов: Григория Лепса, Ларисы Долиной, Димы Билана, Нюши, Пелагеи, Льва Лещенко, Тамары Гвердцители, Александра Розенбаума, Любови Казарновской, Александра Ф. Скляра, Светланы Сургановой, Александра Буйнова, Надежды Кадышевой, Максима Аверина, Веры Джиоевой, Дениса Майданова, Ольги Кормухиной, Юлии Савичевой, Сергея Шакурова, Ирины Апексимовой, Евгения Дятлова, и многих других.
Продолжительность: 1:54:19
Качество видео: HDTV
Видео: AVC/H.264, 1920x1080, ~4324 Кбит/сек
Аудио: MPG2, 2 ch, 192 Кбит/сек, CBR

Mediainfo:

Общее
Идентификатор                            : 1 (0x1)
Полное имя                               : D:\видео\фильмы\Своя игра\Ot.Rusi.Do.Rossii.12.06.2015.HDTV1080i..ts
Формат                                   : MPEG-TS
Размер файла                             : 3,80 Гбайт
Продолжительность                        : 1 ч. 54 м.
Режим общего битрейта                    : Переменный
Общий поток                              : 4753 Кбит/сек
Видео
Идентификатор                            : 351 (0x15F)
Идентификатор меню                       : 1 (0x1)
Формат                                   : AVC
Формат/Информация                        : Advanced Video Codec
Профиль формата                          : High@L4
Параметр CABAC формата                   : Да
Параметр ReFrames формата                : 4 кадра
Идентификатор кодека                     : 27
Продолжительность                        : 1 ч. 54 м.
Битрейт                                  : 4324 Кбит/сек
Ширина                                   : 1920 пикселей
Высота                                   : 1080 пикселей
Соотношение сторон                       : 16:9
Частота кадров                           : 25,000 кадров/сек
Цветовое пространство                    : YUV
Субдискретизация насыщенности            : 4:2:0
Битовая глубина                          : 8 бит
Тип развёртки                            : Чересстрочная
Порядок развёртки                        : Верхнее поле первое
Бит/(Пиксели*Кадры)                      : 0.083
Размер потока                            : 3,45 Гбайт (91%)
Цветовой диапазон                        : Limited
Основные цвета                           : BT.709
Характеристики трансфера                 : BT.709
Коэффициенты матрицы                     : BT.709
Аудио
Идентификатор                            : 251 (0xFB)
Идентификатор меню                       : 1 (0x1)
Формат                                   : MPEG Audio
Версия формата                           : Version 1
Профиль формата                          : Layer 2
Идентификатор кодека                     : 3
Продолжительность                        : 1 ч. 54 м.
Вид битрейта                             : Постоянный
Битрейт                                  : 192 Кбит/сек
Каналы                                   : 2 канала
Частота                                  : 48,0 КГц
Метод сжатия                             : С потерями
Размер потока                            : 157 Мбайт (4%)
Язык                                     : English
Скриншоты:
[Профиль] [ЛС]
Кто просматривает тему:

Показать сообщения:    

Текущее время: Сегодня 10:50

Часовой пояс: GMT



Вы не можете начинать темы
Вы не можете отвечать на сообщения
Вы не можете редактировать свои сообщения
Вы не можете удалять свои сообщения
Вы не можете голосовать в опросах
Вы не можете прикреплять файлы к сообщениям
Вы не можете скачивать файлы