От звонка до звонка / Starred Up (2013) BDRip 1080p | Р

 
Автор Сообщение

достали все ®

Пол:

Стаж: 1 год 8 месяцев

Сообщений: 6570



Награды: 12 (Подробнее)

Mega Releaser 1 (Количество: 1) Mega Seeder 1 (Количество: 1) Mega Seeder 2 (Количество: 1)
Торрент-статистика

Создавать темы 13-Ноя-2015 06:35

[Цитировать]

Название: От звонка до звонка
Оригинальное название: Starred Up
Год выпуска: 2013
Жанр: Драма, криминал
Выпущено: Великобритания, Film4, Lip Sync Productions, Quickfire Films, Sigma Films
Режиссер: Дэвид Маккензи
В ролях: Джек О`Коннелл, Руперт Френд, Бен Мендельсон, Сэм Спруэлл, Дэвид Аджала, Шан Брекин, Питер Фердинандо, Дэвид Крисанту, Энтони Уэльс, Шэйн МакКэффри
О фильме: У Эрика крайне непростая жизнь и проблемный характер. В свои юные годы этот герой британской драмы уже сделался преступником и теперь оказался в тюрьме для взрослых. С самого начала он пытается самоутвердиться среди сотрудников тюрьмы и других обитателей и сталкивается со своим отцом, человеком, который почти всю свою жизнь пробыл за решеткой. По мере того как интрига в фильме нарастает, Эрик заводит дружбу с другими заключенными и осознает, что его озлобленность по отношению ко всем и вся можно преодолеть. Ему открываются новые правила выживания, однако есть силы, способные его уничтожить…

Качество: BDRip 1080p
Видео: MPEG-4 AVC, 13200 Кбит/с, 1916x804
Аудио: Русский (AC3, 2 ch, 192 Кбит/с), английский (DTS, 6 ch, 1510 Кбит/с), (AC3, 6 ch, 448 Кбит/с)
Продолжительность: 01:45:56
Перевод: Профессиональный многоголосый
Субтитры: Английские
Семпл

Скриншоты

MediaInfo

General
Unique ID : 252116838699309172235155907873445670109 (0xBDABEFD990936F25AAAE7F750FB66CDD)
Complete name : D:Видеоt.3B0Hka.D0.3B0Hka.2015.P.BDRip.1080p.mkv
Format : Matroska
Format version : Version 4 / Version 2
File size : 11.3 GiB
Duration : 1h 45mn
Overall bit rate : 15.2 Mbps
Encoded date : UTC 2015-11-12 11:44:09
Writing application : mkvmerge v8.3.0 ('Over the Horizon') 64bit
Writing library : libebml v1.3.1 + libmatroska v1.4.2
DURATION : 01:40:05.040000000
NUMBER_OF_FRAMES : 1322
NUMBER_OF_BYTES : 38486
_STATISTICS_WRITING_APP : mkvmerge v8.3.0 ('Over the Horizon') 64bit
_STATISTICS_WRITING_DATE_UTC : 2015-11-12 11:44:09
_STATISTICS_TAGS : BPS DURATION NUMBER_OF_FRAMES NUMBER_OF_BYTES
Video
ID : 1
Format : AVC
Format/Info : Advanced Video Codec
Format profile : High@L4.1
Format settings, CABAC : Yes
Format settings, ReFrames : 5 frames
Codec ID : V_MPEG4/ISO/AVC
Duration : 1h 45mn
Bit rate : 13.2 Mbps
Width : 1 916 pixels
Height : 804 pixels
Display aspect ratio : 2.40:1
Frame rate mode : Constant
Frame rate : 23.976 fps
Color space : YUV
Chroma subsampling : 4:2:0
Bit depth : 8 bits
Scan type : Progressive
Bits/(Pixel*Frame) : 0.358
Stream size : 9.77 GiB (87%)
Title : Starred Up (2013)
Writing library : x264 core 142 r2453kMod ea0ca51
Encoding settings : cabac=1 / ref=5 / deblock=1:-3:-3 / analyse=0x3:0x133 / me=umh / subme=11 / psy=1 / fade_compensate=0.00 / psy_rd=1.10:0.00 / mixed_ref=1 / me_range=64 / chroma_me=1 / trellis=2 / 8x8dct=1 / cqm=0 / deadzone=21,11 / fast_pskip=0 / chroma_qp_offset=-2 / threads=12 / lookahead_threads=2 / sliced_threads=0 / nr=0 / decimate=0 / interlaced=0 / bluray_compat=0 / constrained_intra=0 / fgo=0 / bframes=9 / b_pyramid=2 / b_adapt=2 / b_bias=0 / direct=3 / weightb=1 / open_gop=0 / weightp=2 / keyint=250 / keyint_min=23 / scenecut=40 / intra_refresh=0 / rc_lookahead=40 / rc=crf / mbtree=0 / crf=15.6000 / qcomp=0.75 / qpmin=0 / qpmax=69 / qpstep=4 / vbv_maxrate=50000 / vbv_bufsize=62500 / crf_max=0.0 / nal_hrd=none / filler=0 / ip_ratio=1.30 / pb_ratio=1.20 / aq=3:0.60
Language : English
Default : Yes
Forced : No
Color primaries : BT.709
Transfer characteristics : BT.709
Matrix coefficients : BT.709
DURATION : 01:45:56.392000000
NUMBER_OF_FRAMES : 152401
NUMBER_OF_BYTES : 10721768611
_STATISTICS_WRITING_APP : mkvmerge v8.3.0 ('Over the Horizon') 64bit
_STATISTICS_WRITING_DATE_UTC : 2015-11-12 11:44:09
_STATISTICS_TAGS : BPS DURATION NUMBER_OF_FRAMES NUMBER_OF_BYTES
Audio #1
ID : 2
Format : AC-3
Format/Info : Audio Coding 3
Mode extension : CM (complete main)
Format settings, Endianness : Big
Codec ID : A_AC3
Duration : 1h 45mn
Bit rate mode : Constant
Bit rate : 192 Kbps
Channel(s) : 2 channels
Channel positions : Front: L R
Sampling rate : 48.0 KHz
Bit depth : 16 bits
Compression mode : Lossy
Stream size : 145 MiB (1%)
Language : Russian
Default : Yes
Forced : No
Audio #2
ID : 3
Format : DTS
Format/Info : Digital Theater Systems
Mode : 16
Format settings, Endianness : Big
Codec ID : A_DTS
Duration : 1h 45mn
Bit rate mode : Constant
Bit rate : 1 509 Kbps
Channel(s) : 6 channels
Channel positions : Front: L C R, Side: L R, LFE
Sampling rate : 48.0 KHz
Bit depth : 24 bits
Compression mode : Lossy
Stream size : 1.12 GiB (10%)
Title : DTS 5.1 @ 1509 kbps
Language : English
Default : No
Forced : No
Text #1
ID : 4
Format : PGS
Muxing mode : zlib
Codec ID : S_HDMV/PGS
Codec ID/Info : The same subtitle format used on BDs/HD-DVDs
Title : sup
Language : English
Default : No
Forced : No
Text #2
ID : 5
Format : UTF-8
Codec ID : S_TEXT/UTF8
Codec ID/Info : UTF-8 Plain Text
Title : srt
Language : English
Default : No
Forced : No
Menu
00:00:00.000 : en:00:00:00.000
00:01:26.628 : en:00:01:26.628
00:06:36.563 : en:00:06:36.563
00:09:16.431 : en:00:09:16.431
00:11:32.734 : en:00:11:32.734
00:14:51.766 : en:00:14:51.766
00:19:30.795 : en:00:19:30.795
00:22:05.366 : en:00:22:05.366
00:26:29.338 : en:00:26:29.338
00:30:00.674 : en:00:30:00.674
00:32:17.936 : en:00:32:17.936
00:36:16.841 : en:00:36:16.841
00:40:20.168 : en:00:40:20.168
00:42:05.982 : en:00:42:05.982
00:45:20.593 : en:00:45:20.593
00:49:59.205 : en:00:49:59.205
00:53:43.470 : en:00:53:43.470
00:57:22.648 : en:00:57:22.648
00:59:45.665 : en:00:59:45.665
01:03:08.952 : en:01:03:08.952
01:04:13.641 : en:01:04:13.641
01:06:59.474 : en:01:06:59.474
01:08:45.246 : en:01:08:45.246
01:12:52.785 : en:01:12:52.785
01:15:30.109 : en:01:15:30.109
01:20:56.643 : en:01:20:56.643
01:22:54.720 : en:01:22:54.720
01:27:02.467 : en:01:27:02.467
01:30:22.459 : en:01:30:22.459
01:35:12.832 : en:01:35:12.832
01:38:12.220 : en:01:38:12.220
01:41:45.933 : en:01:41:45.933
[Профиль] [ЛС]
Кто просматривает тему:

Показать сообщения:    

Текущее время: Сегодня 10:51

Часовой пояс: GMT



Вы не можете начинать темы
Вы не можете отвечать на сообщения
Вы не можете редактировать свои сообщения
Вы не можете удалять свои сообщения
Вы не можете голосовать в опросах
Вы не можете прикреплять файлы к сообщениям
Вы не можете скачивать файлы